  0
SECTION
  2
HEADER
  9
$ACADVER
  1
AC1015
  9
$ACADMAINTVER
 70
     6
  9
$DWGCODEPAGE
  3
ANSI_932
  9
$INSBASE
 10
0.0
 20
0.0
 30
0.0
  9
$EXTMIN
 10
3165.414857925445
 20
17957.29428464329
 30
-0.00000001
  9
$EXTMAX
 10
6813.380769317136
 20
21654.58332914296
 30
0.00000001
  9
$LIMMIN
 10
0.0
 20
0.0
  9
$LIMMAX
 10
4200.0
 20
2970.0
  9
$ORTHOMODE
 70
     1
  9
$REGENMODE
 70
     1
  9
$FILLMODE
 70
     1
  9
$QTEXTMODE
 70
     0
  9
$MIRRTEXT
 70
     1
  9
$LTSCALE
 40
0.1
  9
$ATTMODE
 70
     1
  9
$TEXTSIZE
 40
2.5
  9
$TRACEWID
 40
1.0
  9
$TEXTSTYLE
  7
Standard
  9
$CLAYER
  8
sen1
  9
$CELTYPE
  6
HIDDEN
  9
$CECOLOR
 62
   256
  9
$CELTSCALE
 40
1.0
  9
$DISPSILH
 70
     0
  9
$DIMSCALE
 40
1.0
  9
$DIMASZ
 40
1.0
  9
$DIMEXO
 40
5.0
  9
$DIMDLI
 40
5.0
  9
$DIMRND
 40
0.0
  9
$DIMDLE
 40
1.0
  9
$DIMEXE
 40
5.0
  9
$DIMTP
 40
0.0
  9
$DIMTM
 40
0.0
  9
$DIMTXT
 40
15.0
  9
$DIMCEN
 40
2.5
  9
$DIMTSZ
 40
0.0
  9
$DIMTOL
 70
     0
  9
$DIMLIM
 70
     0
  9
$DIMTIH
 70
     0
  9
$DIMTOH
 70
     0
  9
$DIMSE1
 70
     0
  9
$DIMSE2
 70
     0
  9
$DIMTAD
 70
     2
  9
$DIMZIN
 70
     8
  9
$DIMBLK
  1
None
  9
$DIMASO
 70
     1
  9
$DIMSHO
 70
     1
  9
$DIMPOST
  1

  9
$DIMAPOST
  1

  9
$DIMALT
 70
     0
  9
$DIMALTD
 70
     3
  9
$DIMALTF
 40
0.03937007874016
  9
$DIMLFAC
 40
1.0
  9
$DIMTOFL
 70
     1
  9
$DIMTVP
 40
0.0
  9
$DIMTIX
 70
     1
  9
$DIMSOXD
 70
     0
  9
$DIMSAH
 70
     0
  9
$DIMBLK1
  1

  9
$DIMBLK2
  1

  9
$DIMSTYLE
  2
ISO-25
  9
$DIMCLRD
 70
     5
  9
$DIMCLRE
 70
     5
  9
$DIMCLRT
 70
     0
  9
$DIMTFAC
 40
1.0
  9
$DIMGAP
 40
0.1
  9
$DIMJUST
 70
     0
  9
$DIMSD1
 70
     0
  9
$DIMSD2
 70
     0
  9
$DIMTOLJ
 70
     0
  9
$DIMTZIN
 70
     8
  9
$DIMALTZ
 70
     0
  9
$DIMALTTZ
 70
     0
  9
$DIMUPT
 70
     0
  9
$DIMDEC
 70
     4
  9
$DIMTDEC
 70
     4
  9
$DIMALTU
 70
     2
  9
$DIMALTTD
 70
     3
  9
$DIMTXSTY
  7
Standard
  9
$DIMAUNIT
 70
     0
  9
$DIMADEC
 70
     0
  9
$DIMALTRND
 40
0.0
  9
$DIMAZIN
 70
     0
  9
$DIMDSEP
 70
    44
  9
$DIMATFIT
 70
     3
  9
$DIMFRAC
 70
     2
  9
$DIMLDRBLK
  1
None
  9
$DIMLUNIT
 70
     2
  9
$DIMLWD
 70
    -2
  9
$DIMLWE
 70
    -2
  9
$DIMTMOVE
 70
     0
  9
$LUNITS
 70
     2
  9
$LUPREC
 70
     4
  9
$SKETCHINC
 40
1.0
  9
$FILLETRAD
 40
3.0
  9
$AUNITS
 70
     0
  9
$AUPREC
 70
     0
  9
$MENU
  1
.
  9
$ELEVATION
 40
0.0
  9
$PELEVATION
 40
0.0
  9
$THICKNESS
 40
0.0
  9
$LIMCHECK
 70
     0
  9
$CHAMFERA
 40
10.0
  9
$CHAMFERB
 40
10.0
  9
$CHAMFERC
 40
20.0
  9
$CHAMFERD
 40
0.0
  9
$SKPOLY
 70
     0
  9
$TDCREATE
 40
2452424.625187500
  9
$TDUCREATE
 40
2452424.250187500
  9
$TDUPDATE
 40
2455271.416436088
  9
$TDUUPDATE
 40
2455271.041436088
  9
$TDINDWG
 40
1.7095623148
  9
$TDUSRTIMER
 40
1.7095610417
  9
$USRTIMER
 70
     1
  9
$ANGBASE
 50
0.0
  9
$ANGDIR
 70
     0
  9
$PDMODE
 70
     0
  9
$PDSIZE
 40
0.0
  9
$PLINEWID
 40
0.0
  9
$SPLFRAME
 70
     0
  9
$SPLINETYPE
 70
     6
  9
$SPLINESEGS
 70
     8
  9
$HANDSEED
  5
16370
  9
$SURFTAB1
 70
     6
  9
$SURFTAB2
 70
     6
  9
$SURFTYPE
 70
     6
  9
$SURFU
 70
     6
  9
$SURFV
 70
     6
  9
$UCSBASE
  2

  9
$UCSNAME
  2

  9
$UCSORG
 10
0.0
 20
0.0
 30
0.0
  9
$UCSXDIR
 10
1.0
 20
0.0
 30
0.0
  9
$UCSYDIR
 10
0.0
 20
1.0
 30
0.0
  9
$UCSORTHOREF
  2

  9
$UCSORTHOVIEW
 70
     0
  9
$UCSORGTOP
 10
0.0
 20
0.0
 30
0.0
  9
$UCSORGBOTTOM
 10
0.0
 20
0.0
 30
0.0
  9
$UCSORGLEFT
 10
0.0
 20
0.0
 30
0.0
  9
$UCSORGRIGHT
 10
0.0
 20
0.0
 30
0.0
  9
$UCSORGFRONT
 10
0.0
 20
0.0
 30
0.0
  9
$UCSORGBACK
 10
0.0
 20
0.0
 30
0.0
  9
$PUCSBASE
  2

  9
$PUCSNAME
  2

  9
$PUCSORG
 10
0.0
 20
0.0
 30
0.0
  9
$PUCSXDIR
 10
1.0
 20
0.0
 30
0.0
  9
$PUCSYDIR
 10
0.0
 20
1.0
 30
0.0
  9
$PUCSORTHOREF
  2

  9
$PUCSORTHOVIEW
 70
     0
  9
$PUCSORGTOP
 10
0.0
 20
0.0
 30
0.0
  9
$PUCSORGBOTTOM
 10
0.0
 20
0.0
 30
0.0
  9
$PUCSORGLEFT
 10
0.0
 20
0.0
 30
0.0
  9
$PUCSORGRIGHT
 10
0.0
 20
0.0
 30
0.0
  9
$PUCSORGFRONT
 10
0.0
 20
0.0
 30
0.0
  9
$PUCSORGBACK
 10
0.0
 20
0.0
 30
0.0
  9
$USERI1
 70
     0
  9
$USERI2
 70
     0
  9
$USERI3
 70
     0
  9
$USERI4
 70
     0
  9
$USERI5
 70
     0
  9
$USERR1
 40
0.0
  9
$USERR2
 40
0.0
  9
$USERR3
 40
0.0
  9
$USERR4
 40
0.0
  9
$USERR5
 40
0.0
  9
$WORLDVIEW
 70
     1
  9
$SHADEDGE
 70
     3
  9
$SHADEDIF
 70
    70
  9
$TILEMODE
 70
     1
  9
$MAXACTVP
 70
    64
  9
$PINSBASE
 10
0.0
 20
0.0
 30
0.0
  9
$PLIMCHECK
 70
     0
  9
$PEXTMIN
 10
13.92276988793196
 20
0.6168373408423804
 30
-0.00000001
  9
$PEXTMAX
 10
407.9587665877503
 20
279.5691481312832
 30
0.00000001
  9
$PLIMMIN
 10
-5.873748779296875
 20
-5.873749732971191
  9
$PLIMMAX
 10
414.1152343749999
 20
291.1157522201538
  9
$UNITMODE
 70
     0
  9
$VISRETAIN
 70
     1
  9
$PLINEGEN
 70
     0
  9
$PSLTSCALE
 70
     1
  9
$TREEDEPTH
 70
  3020
  9
$CMLSTYLE
  2
Standard
  9
$CMLJUST
 70
     0
  9
$CMLSCALE
 40
20.0
  9
$PROXYGRAPHICS
 70
     1
  9
$MEASUREMENT
 70
     1
  9
$CELWEIGHT
370
    -1
  9
$ENDCAPS
280
     0
  9
$JOINSTYLE
280
     0
  9
$LWDISPLAY
290
     0
  9
$INSUNITS
 70
     4
  9
$HYPERLINKBASE
  1

  9
$STYLESHEET
  1

  9
$XEDIT
290
     1
  9
$CEPSNTYPE
380
     0
  9
$PSTYLEMODE
290
     1
  9
$FINGERPRINTGUID
  2
{FDEAD578-A652-11D2-9A35-0060089B3A3F}
  9
$VERSIONGUID
  2
{59306EB5-B240-43DF-94DA-5AD27A8471C0}
  9
$EXTNAMES
290
     1
  9
$PSVPSCALE
 40
0.0
  9
$OLESTARTUP
290
     0
  0
ENDSEC
  0
SECTION
  2
CLASSES
  0
CLASS
  1
ACDBDICTIONARYWDFLT
  2
AcDbDictionaryWithDefault
  3
AutoCAD 2000
 90
        0
280
     0
281
     0
  0
CLASS
  1
ACDBPLACEHOLDER
  2
AcDbPlaceHolder
  3
AutoCAD 2000
 90
        0
280
     0
281
     0
  0
CLASS
  1
LAYOUT
  2
AcDbLayout
  3
AutoCAD 2000
 90
        0
280
     0
281
     0
  0
CLASS
  1
DICTIONARYVAR
  2
AcDbDictionaryVar
  3
AutoCAD 2000
 90
        0
280
     0
281
     0
  0
ENDSEC
  0
SECTION
  2
TABLES
  0
TABLE
  2
VPORT
  5
8
330
0
100
AcDbSymbolTable
 70
     2
  0
VPORT
  5
1636F
330
8
100
AcDbSymbolTableRecord
100
AcDbViewportTableRecord
  2
*Active
 70
     0
 10
0.0
 20
0.0
 11
1.0
 21
1.0
 12
4340.923125440123
 22
19323.30560904784
 13
0.0
 23
0.0
 14
10.0
 24
10.0
 15
10.0
 25
10.0
 16
0.0
 26
0.0
 36
1.0
 17
0.0
 27
0.0
 37
0.0
 40
3349.251886139452
 41
1.52112676056338
 42
50.0
 43
0.0
 44
0.0
 50
0.0
 51
0.0
 71
     0
 72
   100
 73
     1
 74
     3
 75
     0
 76
     1
 77
     0
 78
     0
281
     0
 65
     1
110
0.0
120
0.0
130
0.0
111
1.0
121
0.0
131
0.0
112
0.0
122
1.0
132
0.0
 79
     1
146
0.0
  0
ENDTAB
  0
TABLE
  2
LTYPE
  5
5
330
0
100
AcDbSymbolTable
 70
     4
  0
LTYPE
  5
14
330
5
100
AcDbSymbolTableRecord
100
AcDbLinetypeTableRecord
  2
ByBlock
 70
     0
  3

 72
    65
 73
     0
 40
0.0
  0
LTYPE
  5
15
330
5
100
AcDbSymbolTableRecord
100
AcDbLinetypeTableRecord
  2
ByLayer
 70
     0
  3

 72
    65
 73
     0
 40
0.0
  0
LTYPE
  5
16
330
5
100
AcDbSymbolTableRecord
100
AcDbLinetypeTableRecord
  2
Continuous
 70
     0
  3
Solid line
 72
    65
 73
     0
 40
0.0
  0
LTYPE
  5
46
330
5
100
AcDbSymbolTableRecord
100
AcDbLinetypeTableRecord
  2
CENTER
 70
     0
  3
Center ____ _ ____ _ ____ _ ____ _ ____ _ ____
 72
    65
 73
     4
 40
50.8
 49
31.75
 74
     0
 49
-6.349999999999999
 74
     0
 49
6.349999999999999
 74
     0
 49
-6.349999999999999
 74
     0
  0
LTYPE
  5
47
330
5
100
AcDbSymbolTableRecord
100
AcDbLinetypeTableRecord
  2
HIDDEN
 70
     0
  3
Hidden __ __ __ __ __ __ __ __ __ __ __ __ __ _
 72
    65
 73
     2
 40
9.524999999999998
 49
6.349999999999999
 74
     0
 49
-3.174999999999999
 74
     0
  0
LTYPE
  5
48
330
5
100
AcDbSymbolTableRecord
100
AcDbLinetypeTableRecord
  2
PHANTOM
 70
     0
  3
Phantom ______  __  __  ______  __  __  ______
 72
    65
 73
     6
 40
63.5
 49
31.75
 74
     0
 49
-6.349999999999999
 74
     0
 49
6.349999999999999
 74
     0
 49
-6.349999999999999
 74
     0
 49
6.349999999999999
 74
     0
 49
-6.349999999999999
 74
     0
  0
ENDTAB
  0
TABLE
  2
LAYER
  5
2
330
0
100
AcDbSymbolTable
 70
    23
  0
LAYER
  5
10
330
2
100
AcDbSymbolTableRecord
100
AcDbLayerTableRecord
  2
0
 70
     0
 62
     7
  6
Continuous
370
    -3
390
F
  0
LAYER
  5
49
330
2
100
AcDbSymbolTableRecord
100
AcDbLayerTableRecord
  2
sen1
 70
     0
 62
     7
  6
Continuous
370
    25
390
F
  0
LAYER
  5
4A
330
2
100
AcDbSymbolTableRecord
100
AcDbLayerTableRecord
  2
hasen
 70
     0
 62
     5
  6
HIDDEN
370
    15
390
F
  0
LAYER
  5
4B
330
2
100
AcDbSymbolTableRecord
100
AcDbLayerTableRecord
  2
moji
 70
     0
 62
     7
  6
Continuous
370
    25
390
F
  0
LAYER
  5
4C
330
2
100
AcDbSymbolTableRecord
100
AcDbLayerTableRecord
  2
waku
 70
     0
 62
     5
  6
Continuous
370
    13
390
F
  0
LAYER
  5
4D
330
2
100
AcDbSymbolTableRecord
100
AcDbLayerTableRecord
  2
center
 70
     0
 62
     1
  6
CENTER
370
    13
390
F
  0
LAYER
  5
4E
330
2
100
AcDbSymbolTableRecord
100
AcDbLayerTableRecord
  2
kasou
 70
     0
 62
     6
  6
PHANTOM
370
    15
390
F
  0
LAYER
  5
57
330
2
100
AcDbSymbolTableRecord
100
AcDbLayerTableRecord
  2
Defpoints
 70
     0
 62
     7
  6
Continuous
290
     0
370
    -3
390
F
  0
LAYER
  5
A1
330
2
100
AcDbSymbolTableRecord
100
AcDbLayerTableRecord
  2
sunpou
 70
     0
 62
     5
  6
Continuous
370
    13
390
F
  0
LAYER
  5
240D
330
2
100
AcDbSymbolTableRecord
100
AcDbLayerTableRecord
  2
ワイヤー
 70
     0
 62
    30
  6
Continuous
370
    13
390
F
  0
LAYER
  5
240E
330
2
100
AcDbSymbolTableRecord
100
AcDbLayerTableRecord
  2
ネット
 70
     0
 62
    10
  6
Continuous
370
     9
390
F
  0
LAYER
  5
240F
330
2
100
AcDbSymbolTableRecord
100
AcDbLayerTableRecord
  2
NET
 70
     0
 62
   210
  6
Continuous
370
    30
390
F
  0
LAYER
  5
2410
330
2
100
AcDbSymbolTableRecord
100
AcDbLayerTableRecord
  2
アイボルト
 70
     0
 62
     5
  6
Continuous
370
    13
390
F
  0
LAYER
  5
2411
330
2
100
AcDbSymbolTableRecord
100
AcDbLayerTableRecord
  2
ターンバックル
 70
     0
 62
    60
  6
Continuous
370
    13
390
F
  0
LAYER
  5
F75A
330
2
100
AcDbSymbolTableRecord
100
AcDbLayerTableRecord
  2
ポスト
 70
     0
 62
     7
  6
Continuous
370
    13
390
F
  0
LAYER
  5
F75B
330
2
100
AcDbSymbolTableRecord
100
AcDbLayerTableRecord
  2
台座
 70
     0
 62
     5
  6
Continuous
370
    13
390
F
  0
LAYER
  5
F75C
330
2
100
AcDbSymbolTableRecord
100
AcDbLayerTableRecord
  2
スプリング
 70
     0
 62
     6
  6
Continuous
370
    13
390
F
  0
LAYER
  5
10FB6
330
2
100
AcDbSymbolTableRecord
100
AcDbLayerTableRecord
  2
スパイク設置範囲
 70
     0
 62
     5
  6
Continuous
370
     5
390
F
  0
LAYER
  5
10FB7
330
2
100
AcDbSymbolTableRecord
100
AcDbLayerTableRecord
  2
スパイク
 70
     0
 62
     7
  6
Continuous
370
     5
390
F
  0
LAYER
  5
10FB8
330
2
100
AcDbSymbolTableRecord
100
AcDbLayerTableRecord
  2
寸法線
 70
     0
 62
   160
  6
Continuous
370
     5
390
F
  0
LAYER
  5
13C42
330
2
100
AcDbSymbolTableRecord
100
AcDbLayerTableRecord
  2
ビス
 70
     0
 62
     3
  6
Continuous
370
     5
390
F
  0
LAYER
  5
149F2
330
2
100
AcDbSymbolTableRecord
100
AcDbLayerTableRecord
  2
縦格子
 70
     0
 62
     5
  6
Continuous
370
     5
390
F
  0
LAYER
  5
149F3
330
2
100
AcDbSymbolTableRecord
100
AcDbLayerTableRecord
  2
線
 70
     0
 62
   160
  6
Continuous
370
     5
390
F
  0
ENDTAB
  0
TABLE
  2
STYLE
  5
3
330
0
100
AcDbSymbolTable
 70
     2
  0
STYLE
  5
11
330
3
100
AcDbSymbolTableRecord
100
AcDbTextStyleTableRecord
  2
Standard
 70
     0
 40
0.0
 41
1.0
 50
0.0
 71
     0
 42
2.5
  3
txt.shx
  4
bigfont.shx
  0
STYLE
  5
45
330
3
100
AcDbSymbolTableRecord
100
AcDbTextStyleTableRecord
  2

 70
     1
 40
0.0
 41
1.0
 50
0.0
 71
     0
 42
2.5
  3
ltypeshp.shx
  4

  0
ENDTAB
  0
TABLE
  2
VIEW
  5
6
330
0
100
AcDbSymbolTable
 70
     0
  0
ENDTAB
  0
TABLE
  2
UCS
  5
7
330
0
100
AcDbSymbolTable
 70
     0
  0
ENDTAB
  0
TABLE
  2
APPID
  5
9
330
0
100
AcDbSymbolTable
 70
     1
  0
APPID
  5
12
330
9
100
AcDbSymbolTableRecord
100
AcDbRegAppTableRecord
  2
ACAD
 70
     0
  0
ENDTAB
  0
TABLE
  2
DIMSTYLE
  5
A
330
0
100
AcDbSymbolTable
 70
     2
100
AcDbDimStyleTable
 71
     2
340
27
340
6C
  0
DIMSTYLE
105
27
102
{ACAD_REACTORS
330
1074E
330
10765
330
10766
330
1076A
330
107F1
330
107FE
330
10801
330
10926
330
16196
330
161AB
330
161AC
330
161AE
330
161B9
330
161CF
330
16232
330
1624F
102
}
330
A
100
AcDbSymbolTableRecord
100
AcDbDimStyleTableRecord
  2
ISO-25
 70
     0
 41
2.5
 42
0.625
 43
3.75
 44
1.25
 73
     0
 74
     0
 77
     1
 78
     8
140
2.5
141
2.5
143
0.03937007874016
147
0.625
171
     3
172
     1
271
     2
272
     2
274
     3
278
    44
283
     0
284
     8
340
11
  0
DIMSTYLE
105
6C
330
A
100
AcDbSymbolTableRecord
100
AcDbDimStyleTableRecord
  2
ｺﾋﾟｰ - ISO-25
 70
     0
 41
10.0
 42
10.0
 43
3.75
 44
10.0
 73
     0
 74
     0
 77
     1
 78
     8
140
20.0
141
2.5
143
0.03937007874016
147
10.0
171
     3
172
     1
274
     3
276
     2
278
    44
283
     0
284
     8
340
11
341
68
342
68
  0
ENDTAB
  0
TABLE
  2
BLOCK_RECORD
  5
1
330
0
100
AcDbSymbolTable
 70
    25
  0
BLOCK_RECORD
  5
1F
330
1
100
AcDbSymbolTableRecord
100
AcDbBlockTableRecord
  2
*Model_Space
340
22
  0
BLOCK_RECORD
  5
F3B
330
1
100
AcDbSymbolTableRecord
100
AcDbBlockTableRecord
  2
*Paper_Space
340
F3C
  0
BLOCK_RECORD
  5
68
330
1
100
AcDbSymbolTableRecord
100
AcDbBlockTableRecord
  2
_DotSmall
340
0
102
{BLKREFS
331
7EC
331
7ED
331
7E0
331
7E1
102
}
  0
BLOCK_RECORD
  5
582
330
1
100
AcDbSymbolTableRecord
100
AcDbBlockTableRecord
  2
A$C1B305307
340
0
  0
BLOCK_RECORD
  5
7DC
330
1
100
AcDbSymbolTableRecord
100
AcDbBlockTableRecord
  2
*D2
340
0
  0
BLOCK_RECORD
  5
7E8
330
1
100
AcDbSymbolTableRecord
100
AcDbBlockTableRecord
  2
*D3
340
0
  0
BLOCK_RECORD
  5
7F4
330
1
100
AcDbSymbolTableRecord
100
AcDbBlockTableRecord
  2
A$C65246506
340
0
  0
BLOCK_RECORD
  5
CAC
330
1
100
AcDbSymbolTableRecord
100
AcDbBlockTableRecord
  2
A$C264A225C
340
0
  0
BLOCK_RECORD
  5
1877
330
1
100
AcDbSymbolTableRecord
100
AcDbBlockTableRecord
  2
_None
340
0
  0
BLOCK_RECORD
  5
F9CC
330
1
100
AcDbSymbolTableRecord
100
AcDbBlockTableRecord
  2
A$C3D2A2F9E
340
0
  0
BLOCK_RECORD
  5
10814
330
1
100
AcDbSymbolTableRecord
100
AcDbBlockTableRecord
  2
*D8
340
0
  0
BLOCK_RECORD
  5
1081E
330
1
100
AcDbSymbolTableRecord
100
AcDbBlockTableRecord
  2
*D9
340
0
  0
BLOCK_RECORD
  5
1082A
330
1
100
AcDbSymbolTableRecord
100
AcDbBlockTableRecord
  2
*D10
340
0
  0
BLOCK_RECORD
  5
10834
330
1
100
AcDbSymbolTableRecord
100
AcDbBlockTableRecord
  2
*D11
340
0
  0
BLOCK_RECORD
  5
1083E
330
1
100
AcDbSymbolTableRecord
100
AcDbBlockTableRecord
  2
*D12
340
0
  0
BLOCK_RECORD
  5
10848
330
1
100
AcDbSymbolTableRecord
100
AcDbBlockTableRecord
  2
*D13
340
0
  0
BLOCK_RECORD
  5
10850
330
1
100
AcDbSymbolTableRecord
100
AcDbBlockTableRecord
  2
*D14
340
0
  0
BLOCK_RECORD
  5
10927
330
1
100
AcDbSymbolTableRecord
100
AcDbBlockTableRecord
  2
*D15
340
0
  0
BLOCK_RECORD
  5
16252
330
1
100
AcDbSymbolTableRecord
100
AcDbBlockTableRecord
  2
*D16
340
0
  0
BLOCK_RECORD
  5
1625C
330
1
100
AcDbSymbolTableRecord
100
AcDbBlockTableRecord
  2
*D17
340
0
  0
BLOCK_RECORD
  5
16266
330
1
100
AcDbSymbolTableRecord
100
AcDbBlockTableRecord
  2
*D18
340
0
  0
BLOCK_RECORD
  5
16272
330
1
100
AcDbSymbolTableRecord
100
AcDbBlockTableRecord
  2
*D19
340
0
  0
BLOCK_RECORD
  5
1627C
330
1
100
AcDbSymbolTableRecord
100
AcDbBlockTableRecord
  2
*D20
340
0
  0
BLOCK_RECORD
  5
16286
330
1
100
AcDbSymbolTableRecord
100
AcDbBlockTableRecord
  2
*D21
340
0
  0
BLOCK_RECORD
  5
16290
330
1
100
AcDbSymbolTableRecord
100
AcDbBlockTableRecord
  2
*D22
340
0
  0
BLOCK_RECORD
  5
16298
330
1
100
AcDbSymbolTableRecord
100
AcDbBlockTableRecord
  2
*D23
340
0
  0
BLOCK_RECORD
  5
162DB
330
1
100
AcDbSymbolTableRecord
100
AcDbBlockTableRecord
  2
*Paper_Space24
340
1635E
  0
ENDTAB
  0
ENDSEC
  0
SECTION
  2
BLOCKS
  0
BLOCK
  5
20
330
1F
100
AcDbEntity
  8
0
100
AcDbBlockBegin
  2
*Model_Space
 70
     0
 10
0.0
 20
0.0
 30
0.0
  3
*Model_Space
  1

  0
ENDBLK
  5
21
330
1F
100
AcDbEntity
  8
0
100
AcDbBlockEnd
  0
BLOCK
  5
F3D
330
F3B
100
AcDbEntity
 67
     1
  8
0
100
AcDbBlockBegin
  2
*Paper_Space
 70
     0
 10
0.0
 20
0.0
 30
0.0
  3
*Paper_Space
  1

  0
ENDBLK
  5
F3E
330
F3B
100
AcDbEntity
 67
     1
  8
0
100
AcDbBlockEnd
  0
BLOCK
  5
6A
330
68
100
AcDbEntity
  8
0
100
AcDbBlockBegin
  2
_DotSmall
 70
     0
 10
0.0
 20
0.0
 30
0.0
  3
_DotSmall
  1

  0
LWPOLYLINE
  5
69
330
68
100
AcDbEntity
  8
Defpoints
 62
     0
100
AcDbPolyline
 90
        2
 70
     1
 43
0.5
 10
-0.0625
 20
0.0
 42
1.0
 10
0.0625
 20
0.0
 42
1.0
  0
ENDBLK
  5
6B
330
68
100
AcDbEntity
  8
0
100
AcDbBlockEnd
  0
BLOCK
  5
585
330
582
100
AcDbEntity
  8
0
100
AcDbBlockBegin
  2
A$C1B305307
 70
     0
 10
0.0
 20
0.0
 30
0.0
  3
A$C1B305307
  1

  0
LEADER
  5
583
330
582
100
AcDbEntity
  8
sunpou
100
AcDbLeader
  3
ISO-25
 73
     0
 40
20.0
 41
53.33333333333333
 76
     3
 10
200.1152610273738
 20
102.5128665221805
 30
0.0
 10
117.7893637490924
 20
-0.0000000481697953
 30
0.0
 10
0.0000027302608032
 20
-0.0000000481697953
 30
0.0
340
584
213
0.0
223
10.0
233
0.0
1001
ACAD
1000
DSTYLE
1002
{
1070
    77
1070
     0
1070
    41
1040
50.0
1070
    42
1040
10.0
1070
    44
1040
5.0
1070
   140
1040
20.0
1070
   147
1040
8.0
1070
   174
1070
     1
1070
   176
1070
     5
1070
   177
1070
     5
1070
   271
1070
     4
1070
   272
1070
     4
1070
   276
1070
     2
1070
   341
1005
68
1070
   342
1005
68
1002
}
  0
MTEXT
  5
584
102
{ACAD_REACTORS
330
583
102
}
330
582
100
AcDbEntity
  8
sunpou
100
AcDbMText
 10
-7.999997269739196
 20
-10.00000004816979
 30
0.0
 40
20.0
 41
0.0
 71
     9
 72
     1
  1
4-14φ
 73
     1
 44
1.0
  0
ENDBLK
  5
586
330
582
100
AcDbEntity
  8
0
100
AcDbBlockEnd
  0
BLOCK
  5
7E6
330
7DC
100
AcDbEntity
  8
0
100
AcDbBlockBegin
  2
*D2
 70
     1
 10
0.0
 20
0.0
 30
0.0
  3
*D2
  1

  0
LINE
  5
7DD
330
7DC
100
AcDbEntity
  8
Defpoints
 62
     5
370
    -2
100
AcDbLine
 10
949.465986248332
 20
1349.081219274782
 30
0.0
 11
962.8772517388542
 21
1362.492484765304
 31
0.0
  0
LINE
  5
7DE
330
7DC
100
AcDbEntity
  8
Defpoints
 62
     5
370
    -2
100
AcDbLine
 10
1016.641130461054
 20
1281.906075062061
 30
0.0
 11
1030.052395951576
 21
1295.317340552583
 31
0.0
  0
LINE
  5
7DF
330
7DC
100
AcDbEntity
  8
Defpoints
 62
     5
370
    -2
100
AcDbLine
 10
959.3417178329215
 20
1358.956950859372
 30
0.0
 11
1026.516862045643
 21
1291.78180664665
 31
0.0
  0
INSERT
  5
7E0
330
7DC
100
AcDbEntity
  8
Defpoints
 62
     5
370
    -2
100
AcDbBlockReference
  2
_DotSmall
 10
959.3417178329215
 20
1358.956950859372
 30
0.0
 41
50.0
 42
50.0
 43
50.0
 50
135.0000000000002
  0
INSERT
  5
7E1
330
7DC
100
AcDbEntity
  8
Defpoints
 62
     5
370
    -2
100
AcDbBlockReference
  2
_DotSmall
 10
1026.516862045643
 20
1291.78180664665
 30
0.0
 41
50.0
 42
50.0
 43
50.0
 50
315.0000000000002
  0
MTEXT
  5
7E2
330
7DC
100
AcDbEntity
  8
Defpoints
 62
     0
100
AcDbMText
 10
1005.65721200064
 20
1338.097300814369
 30
0.0
 40
20.0
 41
0.0
 71
     5
 72
     1
  1
95
 11
0.7071067811865501
 21
-0.7071067811865451
 31
0.0
 73
     1
 44
1.0
  0
POINT
  5
7E3
330
7DC
100
AcDbEntity
  8
Defpoints
 62
     0
100
AcDbPoint
 10
942.3949184364667
 20
1342.010151462917
 30
0.0
  0
POINT
  5
7E4
330
7DC
100
AcDbEntity
  8
Defpoints
 62
     0
100
AcDbPoint
 10
1009.570062649188
 20
1274.835007250195
 30
0.0
  0
POINT
  5
7E5
330
7DC
100
AcDbEntity
  8
Defpoints
 62
     0
100
AcDbPoint
 10
1026.516862045643
 20
1291.78180664665
 30
0.0
  0
ENDBLK
  5
7E7
330
7DC
100
AcDbEntity
  8
0
100
AcDbBlockEnd
  0
BLOCK
  5
7F2
330
7E8
100
AcDbEntity
  8
0
100
AcDbBlockBegin
  2
*D3
 70
     1
 10
0.0
 20
0.0
 30
0.0
  3
*D3
  1

  0
LINE
  5
7E9
330
7E8
100
AcDbEntity
  8
Defpoints
 62
     5
370
    -2
100
AcDbLine
 10
1021.659494127994
 20
1261.632913821555
 30
0.0
 11
1048.634839792063
 21
1234.657568157485
 31
0.0
  0
LINE
  5
7EA
330
7E8
100
AcDbEntity
  8
Defpoints
 62
     5
370
    -2
100
AcDbLine
 10
979.2330872568008
 20
1219.206506950362
 30
0.0
 11
1006.208432920869
 21
1192.231161286293
 31
0.0
  0
LINE
  5
7EB
330
7E8
100
AcDbEntity
  8
Defpoints
 62
     5
370
    -2
100
AcDbLine
 10
1045.09930588613
 20
1238.193102063418
 30
0.0
 11
1002.672899014937
 21
1195.766695192225
 31
0.0
  0
INSERT
  5
7EC
330
7E8
100
AcDbEntity
  8
Defpoints
 62
     5
370
    -2
100
AcDbBlockReference
  2
_DotSmall
 10
1045.09930588613
 20
1238.193102063418
 30
0.0
 41
50.0
 42
50.0
 43
50.0
 50
44.99999999999936
  0
INSERT
  5
7ED
330
7E8
100
AcDbEntity
  8
Defpoints
 62
     5
370
    -2
100
AcDbBlockReference
  2
_DotSmall
 10
1002.672899014937
 20
1195.766695192225
 30
0.0
 41
50.0
 42
50.0
 43
50.0
 50
224.9999999999993
  0
MTEXT
  5
7EE
330
7E8
100
AcDbEntity
  8
Defpoints
 62
     0
100
AcDbMText
 10
1011.158180389176
 20
1229.70782068918
 30
0.0
 40
20.0
 41
0.0
 71
     5
 72
     1
  1
60
 11
0.707106781186556
 21
0.7071067811865391
 31
0.0
 73
     1
 44
1.0
  0
POINT
  5
7EF
330
7E8
100
AcDbEntity
  8
Defpoints
 62
     0
100
AcDbPoint
 10
1014.588426316129
 20
1268.70398163342
 30
0.0
  0
POINT
  5
7F0
330
7E8
100
AcDbEntity
  8
Defpoints
 62
     0
100
AcDbPoint
 10
972.1620194449355
 20
1226.277574762228
 30
0.0
  0
POINT
  5
7F1
330
7E8
100
AcDbEntity
  8
Defpoints
 62
     0
100
AcDbPoint
 10
1002.672899014937
 20
1195.766695192225
 30
0.0
  0
ENDBLK
  5
7F3
330
7E8
100
AcDbEntity
  8
0
100
AcDbBlockEnd
  0
BLOCK
  5
819
330
7F4
100
AcDbEntity
  8
0
100
AcDbBlockBegin
  2
A$C65246506
 70
     0
 10
0.0
 20
0.0
 30
0.0
  3
A$C65246506
  1

  0
LINE
  5
7F5
330
7F4
100
AcDbEntity
  8
kasou
100
AcDbLine
 10
0.0000012415484889
 20
333.1536048224143
 30
0.0
 11
333.1536063869091
 21
-0.0000003229461072
 31
0.0
  0
LINE
  5
7F6
330
7F4
100
AcDbEntity
  8
kasou
100
AcDbLine
 10
244.9964299040805
 20
88.15717615988228
 30
0.0
 11
273.8370321264594
 21
116.9977783822614
 31
0.0
  0
LINE
  5
7F7
330
7F4
100
AcDbEntity
  8
kasou
100
AcDbLine
 10
236.5111485298417
 20
96.64245753412092
 30
0.0
 11
265.3517507522208
 21
125.4830597565
 31
0.0
  0
LINE
  5
7F8
330
7F4
100
AcDbEntity
  8
center
100
AcDbLine
 10
226.6116535932303
 20
78.25768122327076
 30
0.0
 11
269.5943914393401
 21
121.2404190693807
 31
0.0
  0
DIMENSION
  5
7F9
330
7F4
100
AcDbEntity
  8
Defpoints
100
AcDbDimension
  2
*D3
 10
262.6972278050883
 20
42.17210701141107
 30
0.0
 11
271.1825091793274
 21
76.11323250836517
 31
0.0
 12
-739.9756712098487
 22
-1153.594588180814
 32
0.0
 70
     1
 71
     5
 42
60.00000000000023
  3
ISO-25
100
AcDbAlignedDimension
 13
274.6127551062803
 23
115.1093934526059
 33
0.0
 14
232.1863482350868
 24
72.68298658141339
 34
0.0
1001
ACAD
1000
DSTYLE
1002
{
1070
    41
1040
50.0
1070
    42
1040
10.0
1070
    44
1040
5.0
1070
   140
1040
20.0
1070
   147
1040
8.0
1070
   174
1070
     1
1070
   176
1070
     5
1070
   177
1070
     5
1070
   271
1070
     4
1070
   272
1070
     4
1070
   276
1070
     2
1070
   341
1005
68
1070
   342
1005
68
1002
}
  0
LINE
  5
7FA
330
7F4
100
AcDbEntity
  8
sen1
100
AcDbLine
 10
310.4745178419541
 20
18.15360482241408
 30
0.0
 11
171.3159033044421
 21
157.3122193599262
 31
0.0
  0
LINE
  5
7FB
330
7F4
100
AcDbEntity
  8
sen1
100
AcDbLine
 10
315.0000012415484
 20
18.15360482241408
 30
0.0
 11
173.5786450042389
 21
159.5749610597233
 31
0.0
  0
ARC
  5
7FC
330
7F4
100
AcDbEntity
  8
kasou
100
AcDbCircle
 10
240.0466824357744
 20
81.79321512727961
 30
0.0
 40
2.0
100
AcDbArc
 50
225.0000000779416
 51
315.0000000000046
  0
LINE
  5
7FD
330
7F4
100
AcDbEntity
  8
kasou
100
AcDbLine
 10
241.4608959981475
 20
80.3790015649065
 30
0.0
 11
247.1177502476403
 21
86.03585581632296
 31
0.0
  0
LINE
  5
7FE
330
7F4
100
AcDbEntity
  8
kasou
100
AcDbLine
 10
228.7329739367896
 20
90.27849647266249
 30
0.0
 11
238.632468875325
 21
80.37900156298292
 31
0.0
  0
LINE
  5
7FF
330
7F4
100
AcDbEntity
  8
kasou
100
AcDbLine
 10
228.7329739367896
 20
93.10692359740869
 30
0.0
 11
234.3898281862823
 21
98.76377787768092
 31
0.0
  0
ARC
  5
800
330
7F4
100
AcDbEntity
  8
kasou
100
AcDbCircle
 10
230.1471874991627
 20
91.69271003503558
 30
0.0
 40
2.0
100
AcDbArc
 50
134.9999999999953
 51
224.9999999999953
  0
LINE
  5
801
330
7F4
100
AcDbEntity
  8
kasou
100
AcDbLine
 10
235.8040417486547
 20
83.20742869157607
 30
0.0
 11
242.8751095605209
 21
90.27849650344228
 31
0.0
  0
LINE
  5
802
330
7F4
100
AcDbEntity
  8
kasou
100
AcDbLine
 10
231.5614010615356
 20
87.45006937869584
 30
0.0
 11
238.6324688734015
 21
94.52113719056161
 31
0.0
  0
LINE
  5
803
330
7F4
100
AcDbEntity
  8
kasou
100
AcDbLine
 10
228.7329739367897
 20
88.86428294106805
 30
0.0
 11
237.2182553110284
 21
80.37900156682917
 31
0.0
  0
LINE
  5
804
330
7F4
100
AcDbEntity
  8
kasou
100
AcDbLine
 10
228.0258671556032
 20
88.15717615988161
 30
0.0
 11
236.5111485298418
 21
79.67189478564273
 31
0.0
  0
LINE
  5
805
330
7F4
100
AcDbEntity
  8
kasou
100
AcDbLine
 10
227.3187603744166
 20
87.45006937869517
 30
0.0
 11
235.8040417486553
 21
78.96478800445629
 31
0.0
  0
LINE
  5
806
330
7F4
100
AcDbEntity
  8
kasou
100
AcDbLine
 10
226.6116535932301
 20
86.74296259750873
 30
0.0
 11
235.0969349674687
 21
78.25768122326985
 31
0.0
  0
LINE
  5
807
330
7F4
100
AcDbEntity
  8
kasou
100
AcDbLine
 10
225.9045468120435
 20
86.03585581632229
 30
0.0
 11
234.3898281862822
 21
77.55057444208341
 31
0.0
  0
LINE
  5
808
330
7F4
100
AcDbEntity
  8
kasou
100
AcDbLine
 10
225.197440030857
 20
85.32874903513585
 30
0.0
 11
233.6827214050956
 21
76.84346766089698
 31
0.0
  0
LINE
  5
809
330
7F4
100
AcDbEntity
  8
kasou
100
AcDbLine
 10
224.4903332496704
 20
84.62164225394941
 30
0.0
 11
232.9756146239091
 21
76.13636087971054
 31
0.0
  0
LINE
  5
80A
330
7F4
100
AcDbEntity
  8
kasou
100
AcDbLine
 10
223.7832264684839
 20
83.91453547276297
 30
0.0
 11
232.2685078427225
 21
75.4292540985241
 31
0.0
  0
LINE
  5
80B
330
7F4
100
AcDbEntity
  8
kasou
100
AcDbLine
 10
223.0761196872973
 20
83.20742869157653
 30
0.0
 11
231.561401061536
 21
74.72214731733766
 31
0.0
  0
LINE
  5
80C
330
7F4
100
AcDbEntity
  8
kasou
100
AcDbLine
 10
230.8542942803496
 20
74.01504053615167
 30
0.0
 11
237.9253620922145
 21
81.08610834801652
 31
0.0
  0
LINE
  5
80D
330
7F4
100
AcDbEntity
  8
kasou
100
AcDbLine
 10
222.369012906111
 20
82.5003219103903
 30
0.0
 11
229.4400807179759
 21
89.57138972225539
 31
0.0
  0
LINE
  5
80E
330
7F4
100
AcDbEntity
  8
kasou
100
AcDbLine
 10
222.3690129061107
 20
82.50032191039009
 30
0.0
 11
230.8542942803494
 21
74.01504053615122
 31
0.0
  0
DIMENSION
  5
80F
330
7F4
100
AcDbEntity
  8
Defpoints
100
AcDbDimension
  2
*D2
 10
286.5411908357948
 20
138.1872184658357
 30
0.0
 11
265.6815407907917
 21
184.5027126335542
 31
0.0
 12
-739.9756712098487
 22
-1153.594588180814
 32
0.0
 70
     1
 71
     5
 42
95.0
  3
ISO-25
100
AcDbAlignedDimension
 13
202.4192472266179
 23
188.4155632821025
 33
0.0
 14
269.5943914393401
 24
121.2404190693807
 34
0.0
1001
ACAD
1000
DSTYLE
1002
{
1070
    41
1040
50.0
1070
    42
1040
10.0
1070
    44
1040
5.0
1070
   140
1040
20.0
1070
   147
1040
8.0
1070
   174
1070
     1
1070
   176
1070
     5
1070
   177
1070
     5
1070
   271
1070
     4
1070
   272
1070
     4
1070
   276
1070
     2
1070
   341
1005
68
1070
   342
1005
68
1002
}
  0
LINE
  5
810
330
7F4
100
AcDbEntity
  8
kasou
100
AcDbLine
 10
247.8248570288262
 20
107.9561660331046
 30
0.0
 11
256.3101384030651
 21
99.47088465886601
 31
0.0
  0
LINE
  5
811
330
7F4
100
AcDbEntity
  8
kasou
100
AcDbLine
 10
249.9461773723859
 20
110.0774863766644
 30
0.0
 11
258.4314587466248
 21
101.5922050024257
 31
0.0
  0
LINE
  5
812
330
7F4
100
AcDbEntity
  8
kasou
100
AcDbLine
 10
252.0674977159456
 20
112.1988067202241
 30
0.0
 11
260.5527790901844
 21
103.7135253459855
 31
0.0
  0
LINE
  5
813
330
7F4
100
AcDbEntity
  8
kasou
100
AcDbLine
 10
254.1888180595052
 20
114.3201270637839
 30
0.0
 11
262.6740994337441
 21
105.8348456895453
 31
0.0
  0
LINE
  5
814
330
7F4
100
AcDbEntity
  8
kasou
100
AcDbLine
 10
256.3101384030649
 20
116.4414474073437
 30
0.0
 11
264.7954197773037
 21
107.956166033105
 31
0.0
  0
LINE
  5
815
330
7F4
100
AcDbEntity
  8
kasou
100
AcDbLine
 10
258.4314587466245
 20
118.5627677509035
 30
0.0
 11
266.9167401208634
 21
110.0774863766648
 31
0.0
  0
LINE
  5
816
330
7F4
100
AcDbEntity
  8
kasou
100
AcDbLine
 10
260.5527790901842
 20
120.6840880944632
 30
0.0
 11
269.038060464423
 21
112.1988067202246
 31
0.0
  0
LINE
  5
817
330
7F4
100
AcDbEntity
  8
kasou
100
AcDbLine
 10
262.6740994337438
 20
122.805408438023
 30
0.0
 11
271.1593808079827
 21
114.3201270637844
 31
0.0
  0
LINE
  5
818
330
7F4
100
AcDbEntity
  8
kasou
100
AcDbLine
 10
264.7954197773035
 20
124.9267287815828
 30
0.0
 11
273.2807011515424
 21
116.4414474073441
 31
0.0
  0
ENDBLK
  5
81A
330
7F4
100
AcDbEntity
  8
0
100
AcDbBlockEnd
  0
BLOCK
  5
CAE
330
CAC
100
AcDbEntity
  8
0
100
AcDbBlockBegin
  2
A$C264A225C
 70
     0
 10
0.0
 20
0.0
 30
0.0
  3
A$C264A225C
  1

  0
MTEXT
  5
CAD
330
CAC
100
AcDbEntity
  8
moji
100
AcDbMText
 10
-0.0000002255688969
 20
2.500000030659919
 30
0.0
 40
2.5
 41
79.9221
 71
     1
 72
     5
  1
取付金具1詳細図　S=1/5
 73
     1
 44
1.0
  0
ENDBLK
  5
CAF
330
CAC
100
AcDbEntity
  8
0
100
AcDbBlockEnd
  0
BLOCK
  5
1878
330
1877
100
AcDbEntity
  8
0
100
AcDbBlockBegin
  2
_None
 70
     0
 10
0.0
 20
0.0
 30
0.0
  3
_None
  1

  0
ENDBLK
  5
1879
330
1877
100
AcDbEntity
  8
0
100
AcDbBlockEnd
  0
BLOCK
  5
F9CE
330
F9CC
100
AcDbEntity
  8
0
100
AcDbBlockBegin
  2
A$C3D2A2F9E
 70
     0
 10
0.0
 20
0.0
 30
0.0
  3
A$C3D2A2F9E
  1

  0
MTEXT
  5
F9CD
330
F9CC
100
AcDbEntity
  8
sen1
100
AcDbMText
 10
-0.0000248342294071
 20
199.9999956256178
 30
0.0
 40
200.0
 41
6215.7835
 71
     1
 72
     5
  1
標準設置図（アイボルト・ネット部）
 73
     2
 44
1.0
  0
ENDBLK
  5
F9CF
330
F9CC
100
AcDbEntity
  8
0
100
AcDbBlockEnd
  0
BLOCK
  5
1081C
330
10814
100
AcDbEntity
  8
0
100
AcDbBlockBegin
  2
*D8
 70
     1
 10
0.0
 20
0.0
 30
0.0
  3
*D8
  1

  0
LINE
  5
1097A
330
10814
100
AcDbEntity
  8
sen1
 62
     5
370
    -2
100
AcDbLine
 10
5010.466209434626
 20
18652.81339019617
 30
0.0
 11
5010.466209434626
 21
18712.16986524773
 31
0.0
  0
LINE
  5
1097B
330
10814
100
AcDbEntity
  8
sen1
 62
     5
370
    -2
100
AcDbLine
 10
3790.466209434625
 20
18652.81339019617
 30
0.0
 11
3790.466209434625
 21
18712.16986524773
 31
0.0
  0
LINE
  5
1097C
330
10814
100
AcDbEntity
  8
sen1
 62
     5
370
    -2
100
AcDbLine
 10
5011.466209434626
 20
18707.16986524773
 30
0.0
 11
3789.466209434626
 21
18707.16986524773
 31
0.0
  0
MTEXT
  5
1097D
330
10814
100
AcDbEntity
  8
sen1
 62
     0
100
AcDbMText
 10
4400.466209434625
 20
18714.16986524773
 30
0.0
 40
10.0
 41
0.0
 71
     5
 72
     1
  1
1220
 73
     1
 44
1.0
  0
POINT
  5
1097E
330
10814
100
AcDbEntity
  8
Defpoints
 62
     0
100
AcDbPoint
 10
5010.466209434626
 20
18647.81339019617
 30
0.0
  0
POINT
  5
1097F
330
10814
100
AcDbEntity
  8
Defpoints
 62
     0
100
AcDbPoint
 10
3790.466209434625
 20
18647.81339019617
 30
0.0
  0
POINT
  5
10980
330
10814
100
AcDbEntity
  8
Defpoints
 62
     0
100
AcDbPoint
 10
3790.466209434625
 20
18707.16986524773
 30
0.0
  0
ENDBLK
  5
1081D
330
10814
100
AcDbEntity
  8
0
100
AcDbBlockEnd
  0
BLOCK
  5
10828
330
1081E
100
AcDbEntity
  8
0
100
AcDbBlockBegin
  2
*D9
 70
     1
 10
0.0
 20
0.0
 30
0.0
  3
*D9
  1

  0
LINE
  5
10AC2
330
1081E
100
AcDbEntity
  8
moji
 62
     5
370
    -2
100
AcDbLine
 10
4396.136082415435
 20
18149.83437356061
 30
0.0
 11
4366.218817701615
 21
18167.10711439225
 31
0.0
  0
LINE
  5
10AC3
330
1081E
100
AcDbEntity
  8
moji
 62
     5
370
    -2
100
AcDbLine
 10
4373.636082415434
 20
18110.86323038061
 30
0.0
 11
4343.718817701613
 21
18128.13597121225
 31
0.0
  0
LINE
  5
10AC4
330
1081E
100
AcDbEntity
  8
moji
 62
     5
370
    -2
100
AcDbLine
 10
4370.548944720806
 20
18164.60711439272
 30
0.0
 11
4371.048944720714
 21
18165.47313979656
 31
0.0
  0
LINE
  5
10AC5
330
1081E
100
AcDbEntity
  8
moji
 62
     5
370
    -2
100
AcDbLine
 10
4348.048944720805
 20
18125.63597121272
 30
0.0
 11
4347.548944720899
 21
18124.76994580888
 31
0.0
  0
LINE
  5
10AC6
330
1081E
100
AcDbEntity
  8
moji
 62
     5
370
    -2
100
AcDbLine
 10
4370.548944720806
 20
18164.60711439272
 30
0.0
 11
4348.048944720805
 21
18125.63597121272
 31
0.0
  0
MTEXT
  5
10AC7
330
1081E
100
AcDbEntity
  8
moji
 62
     0
100
AcDbMText
 10
4347.083276348985
 20
18137.96338453166
 30
0.0
 40
10.0
 41
0.0
 71
     5
 72
     1
  1
45
 11
0.499999999906702
 21
0.8660254038383042
 31
0.0
 73
     1
 44
1.0
  0
POINT
  5
10AC8
330
1081E
100
AcDbEntity
  8
Defpoints
 62
     0
100
AcDbPoint
 10
4400.466209434626
 20
18147.33437356107
 30
0.0
  0
POINT
  5
10AC9
330
1081E
100
AcDbEntity
  8
Defpoints
 62
     0
100
AcDbPoint
 10
4377.966209434627
 20
18108.36323038107
 30
0.0
  0
POINT
  5
10ACA
330
1081E
100
AcDbEntity
  8
Defpoints
 62
     0
100
AcDbPoint
 10
4348.048944720805
 20
18125.63597121272
 30
0.0
  0
ENDBLK
  5
10829
330
1081E
100
AcDbEntity
  8
0
100
AcDbBlockEnd
  0
BLOCK
  5
10832
330
1082A
100
AcDbEntity
  8
0
100
AcDbBlockBegin
  2
*D10
 70
     1
 10
0.0
 20
0.0
 30
0.0
  3
*D10
  1

  0
LINE
  5
10ABB
330
1082A
100
AcDbEntity
  8
moji
 62
     5
370
    -2
100
AcDbLine
 10
4438.466209434629
 20
18169.35361583975
 30
0.0
 11
4438.466209434629
 21
18031.92978399923
 31
0.0
  0
LINE
  5
10ABC
330
1082A
100
AcDbEntity
  8
moji
 62
     5
370
    -2
100
AcDbLine
 10
4362.46620943463
 20
18169.35361583975
 30
0.0
 11
4362.46620943463
 21
18031.92978399923
 31
0.0
  0
LINE
  5
10ABD
330
1082A
100
AcDbEntity
  8
moji
 62
     5
370
    -2
100
AcDbLine
 10
4439.466209434629
 20
18036.92978399923
 30
0.0
 11
4361.466209434629
 21
18036.92978399923
 31
0.0
  0
MTEXT
  5
10ABE
330
1082A
100
AcDbEntity
  8
moji
 62
     0
100
AcDbMText
 10
4400.466209434629
 20
18043.92978399923
 30
0.0
 40
10.0
 41
0.0
 71
     5
 72
     1
  1
76
 73
     1
 44
1.0
  0
POINT
  5
10ABF
330
1082A
100
AcDbEntity
  8
Defpoints
 62
     0
100
AcDbPoint
 10
4438.466209434629
 20
18174.35361583975
 30
0.0
  0
POINT
  5
10AC0
330
1082A
100
AcDbEntity
  8
Defpoints
 62
     0
100
AcDbPoint
 10
4362.46620943463
 20
18174.35361583975
 30
0.0
  0
POINT
  5
10AC1
330
1082A
100
AcDbEntity
  8
Defpoints
 62
     0
100
AcDbPoint
 10
4362.46620943463
 20
18036.92978399923
 30
0.0
  0
ENDBLK
  5
10833
330
1082A
100
AcDbEntity
  8
0
100
AcDbBlockEnd
  0
BLOCK
  5
1083C
330
10834
100
AcDbEntity
  8
0
100
AcDbBlockBegin
  2
*D11
 70
     1
 10
0.0
 20
0.0
 30
0.0
  3
*D11
  1

  0
LINE
  5
10AB4
330
10834
100
AcDbEntity
  8
moji
 62
     5
370
    -2
100
AcDbLine
 10
4377.966209434625
 20
18103.36323038107
 30
0.0
 11
4377.966209434625
 21
18055.81616814946
 31
0.0
  0
LINE
  5
10AB5
330
10834
100
AcDbEntity
  8
moji
 62
     5
370
    -2
100
AcDbLine
 10
4422.966209434625
 20
18103.36323038107
 30
0.0
 11
4422.966209434625
 21
18055.81616814946
 31
0.0
  0
LINE
  5
10AB6
330
10834
100
AcDbEntity
  8
moji
 62
     5
370
    -2
100
AcDbLine
 10
4376.966209434626
 20
18060.81616814946
 30
0.0
 11
4423.966209434626
 21
18060.81616814946
 31
0.0
  0
MTEXT
  5
10AB7
330
10834
100
AcDbEntity
  8
moji
 62
     0
100
AcDbMText
 10
4400.466209434625
 20
18067.81616814946
 30
0.0
 40
10.0
 41
0.0
 71
     5
 72
     1
  1
45
 73
     1
 44
1.0
  0
POINT
  5
10AB8
330
10834
100
AcDbEntity
  8
Defpoints
 62
     0
100
AcDbPoint
 10
4377.966209434625
 20
18108.36323038107
 30
0.0
  0
POINT
  5
10AB9
330
10834
100
AcDbEntity
  8
Defpoints
 62
     0
100
AcDbPoint
 10
4422.966209434625
 20
18108.36323038107
 30
0.0
  0
POINT
  5
10ABA
330
10834
100
AcDbEntity
  8
Defpoints
 62
     0
100
AcDbPoint
 10
4422.966209434625
 20
18060.81616814946
 30
0.0
  0
ENDBLK
  5
1083D
330
10834
100
AcDbEntity
  8
0
100
AcDbBlockEnd
  0
BLOCK
  5
10846
330
1083E
100
AcDbEntity
  8
0
100
AcDbBlockBegin
  2
*D12
 70
     1
 10
0.0
 20
0.0
 30
0.0
  3
*D12
  1

  0
LINE
  5
10AAD
330
1083E
100
AcDbEntity
  8
moji
 62
     5
370
    -2
100
AcDbLine
 10
4494.261425464992
 20
18284.35361583975
 30
0.0
 11
4545.056641495359
 21
18284.35361583975
 31
0.0
  0
LINE
  5
10AAE
330
1083E
100
AcDbEntity
  8
moji
 62
     5
370
    -2
100
AcDbLine
 10
4499.261425464994
 20
18174.35361583975
 30
0.0
 11
4545.056641495359
 21
18174.35361583975
 31
0.0
  0
LINE
  5
10AAF
330
1083E
100
AcDbEntity
  8
moji
 62
     5
370
    -2
100
AcDbLine
 10
4540.056641495359
 20
18285.35361583975
 30
0.0
 11
4540.056641495359
 21
18173.35361583975
 31
0.0
  0
MTEXT
  5
10AB0
330
1083E
100
AcDbEntity
  8
moji
 62
     0
100
AcDbMText
 10
4547.056641495356
 20
18229.35361583975
 30
0.0
 40
10.0
 41
0.0
 71
     5
 72
     1
  1
110
 11
0.0000000000000001
 21
1.0
 31
0.0
 73
     1
 44
1.0
  0
POINT
  5
10AB1
330
1083E
100
AcDbEntity
  8
Defpoints
 62
     0
100
AcDbPoint
 10
4489.261425464992
 20
18284.35361583975
 30
0.0
  0
POINT
  5
10AB2
330
1083E
100
AcDbEntity
  8
Defpoints
 62
     0
100
AcDbPoint
 10
4494.261425464994
 20
18174.35361583975
 30
0.0
  0
POINT
  5
10AB3
330
1083E
100
AcDbEntity
  8
Defpoints
 62
     0
100
AcDbPoint
 10
4540.056641495359
 20
18174.35361583975
 30
0.0
  0
ENDBLK
  5
10847
330
1083E
100
AcDbEntity
  8
0
100
AcDbBlockEnd
  0
BLOCK
  5
1084E
330
10848
100
AcDbEntity
  8
0
100
AcDbBlockBegin
  2
*D13
 70
     1
 10
0.0
 20
0.0
 30
0.0
  3
*D13
  1

  0
LINE
  5
1096E
330
10848
100
AcDbEntity
  8
sen1
 62
     5
370
    -2
100
AcDbLine
 10
4489.934021235462
 20
18600.74993427635
 30
0.0
 11
4405.403907226889
 21
18587.27950115547
 31
0.0
  0
MTEXT
  5
1096F
330
10848
100
AcDbEntity
  8
sen1
 62
     0
100
AcDbMText
 10
4471.221302357739
 20
18604.85626231744
 30
0.0
 40
10.0
 41
0.0
 71
     5
 72
     1
  1
M-10
 11
0.9875395584540667
 21
0.1573709645657254
 31
0.0
 73
     1
 44
1.0
  0
LINE
  5
10970
330
10848
100
AcDbEntity
  8
sen1
 62
     5
370
    -2
100
AcDbLine
 10
4400.466209434617
 20
18586.49264633264
 30
0.0
 11
4405.403907226889
 21
18587.27950115547
 31
0.0
  0
POINT
  5
10971
330
10848
100
AcDbEntity
  8
Defpoints
 62
     0
100
AcDbPoint
 10
4405.403907226889
 20
18587.27950115547
 30
0.0
  0
POINT
  5
10972
330
10848
100
AcDbEntity
  8
Defpoints
 62
     0
100
AcDbPoint
 10
4400.466209434617
 20
18586.49264633264
 30
0.0
  0
ENDBLK
  5
1084F
330
10848
100
AcDbEntity
  8
0
100
AcDbBlockEnd
  0
BLOCK
  5
10858
330
10850
100
AcDbEntity
  8
0
100
AcDbBlockBegin
  2
*D14
 70
     1
 10
0.0
 20
0.0
 30
0.0
  3
*D14
  1

  0
LINE
  5
10973
330
10850
100
AcDbEntity
  8
sen1
 62
     5
370
    -2
100
AcDbLine
 10
4428.466209434626
 20
18591.49264633263
 30
0.0
 11
4428.466209434626
 21
18627.1530182644
 31
0.0
  0
LINE
  5
10974
330
10850
100
AcDbEntity
  8
sen1
 62
     5
370
    -2
100
AcDbLine
 10
4372.466209434628
 20
18591.49264633263
 30
0.0
 11
4372.466209434628
 21
18627.1530182644
 31
0.0
  0
LINE
  5
10975
330
10850
100
AcDbEntity
  8
sen1
 62
     5
370
    -2
100
AcDbLine
 10
4429.466209434625
 20
18622.1530182644
 30
0.0
 11
4371.466209434628
 21
18622.1530182644
 31
0.0
  0
MTEXT
  5
10976
330
10850
100
AcDbEntity
  8
sen1
 62
     0
100
AcDbMText
 10
4400.466209434625
 20
18629.1530182644
 30
0.0
 40
10.0
 41
0.0
 71
     5
 72
     1
  1
56
 73
     1
 44
1.0
  0
POINT
  5
10977
330
10850
100
AcDbEntity
  8
Defpoints
 62
     0
100
AcDbPoint
 10
4428.466209434626
 20
18586.49264633263
 30
0.0
  0
POINT
  5
10978
330
10850
100
AcDbEntity
  8
Defpoints
 62
     0
100
AcDbPoint
 10
4372.466209434628
 20
18586.49264633263
 30
0.0
  0
POINT
  5
10979
330
10850
100
AcDbEntity
  8
Defpoints
 62
     0
100
AcDbPoint
 10
4372.466209434628
 20
18622.1530182644
 30
0.0
  0
ENDBLK
  5
10859
330
10850
100
AcDbEntity
  8
0
100
AcDbBlockEnd
  0
BLOCK
  5
1092F
330
10927
100
AcDbEntity
  8
0
100
AcDbBlockBegin
  2
*D15
 70
     1
 10
0.0
 20
0.0
 30
0.0
  3
*D15
  1

  0
LINE
  5
10AA6
330
10927
100
AcDbEntity
  8
moji
 62
     5
370
    -2
100
AcDbLine
 10
4982.920145585977
 20
18274.35361583975
 30
0.0
 11
5021.949322076229
 21
18274.35361583975
 31
0.0
  0
LINE
  5
10AA7
330
10927
100
AcDbEntity
  8
moji
 62
     5
370
    -2
100
AcDbLine
 10
4982.920145585977
 20
18174.35361583975
 30
0.0
 11
5021.949322076229
 21
18174.35361583975
 31
0.0
  0
LINE
  5
10AA8
330
10927
100
AcDbEntity
  8
moji
 62
     5
370
    -2
100
AcDbLine
 10
5016.94932207623
 20
18275.35361583975
 30
0.0
 11
5016.94932207623
 21
18173.35361583975
 31
0.0
  0
MTEXT
  5
10AA9
330
10927
100
AcDbEntity
  8
moji
 62
     0
100
AcDbMText
 10
5024.549322076228
 20
18224.35361583975
 30
0.0
 40
15.0
 41
0.0
 71
     5
 72
     1
  1
100
 11
0.0000000000000001
 21
1.0
 31
0.0
 73
     1
 44
1.0
  0
POINT
  5
10AAA
330
10927
100
AcDbEntity
  8
Defpoints
 62
     0
100
AcDbPoint
 10
4977.920145585977
 20
18274.35361583975
 30
0.0
  0
POINT
  5
10AAB
330
10927
100
AcDbEntity
  8
Defpoints
 62
     0
100
AcDbPoint
 10
4977.920145585977
 20
18174.35361583975
 30
0.0
  0
POINT
  5
10AAC
330
10927
100
AcDbEntity
  8
Defpoints
 62
     0
100
AcDbPoint
 10
5016.94932207623
 20
18174.35361583975
 30
0.0
  0
ENDBLK
  5
10930
330
10927
100
AcDbEntity
  8
0
100
AcDbBlockEnd
  0
BLOCK
  5
1625A
330
16252
100
AcDbEntity
  8
0
100
AcDbBlockBegin
  2
*D16
 70
     1
 10
0.0
 20
0.0
 30
0.0
  3
*D16
  1

  0
LINE
  5
162A2
330
16252
100
AcDbEntity
  8
sen1
 62
     5
370
    -2
100
AcDbLine
 10
5606.786020879762
 20
20377.5325149185
 30
0.0
 11
5606.786020879762
 21
20436.88898997006
 31
0.0
  0
LINE
  5
162A3
330
16252
100
AcDbEntity
  8
sen1
 62
     5
370
    -2
100
AcDbLine
 10
3166.786020879762
 20
20377.5325149185
 30
0.0
 11
3166.786020879762
 21
20436.88898997006
 31
0.0
  0
LINE
  5
162A4
330
16252
100
AcDbEntity
  8
sen1
 62
     5
370
    -2
100
AcDbLine
 10
5607.786020879762
 20
20431.88898997006
 30
0.0
 11
3165.786020879762
 21
20431.88898997006
 31
0.0
  0
MTEXT
  5
162A5
330
16252
100
AcDbEntity
  8
sen1
 62
     0
100
AcDbMText
 10
4386.786020879762
 20
20438.88898997006
 30
0.0
 40
10.0
 41
0.0
 71
     5
 72
     1
  1
2440
 73
     1
 44
1.0
  0
POINT
  5
162A6
330
16252
100
AcDbEntity
  8
Defpoints
 62
     0
100
AcDbPoint
 10
5606.786020879762
 20
20372.53251491851
 30
0.0
  0
POINT
  5
162A7
330
16252
100
AcDbEntity
  8
Defpoints
 62
     0
100
AcDbPoint
 10
3166.786020879762
 20
20372.5325149185
 30
0.0
  0
POINT
  5
162A8
330
16252
100
AcDbEntity
  8
Defpoints
 62
     0
100
AcDbPoint
 10
3166.786020879762
 20
20431.88898997006
 30
0.0
  0
ENDBLK
  5
1625B
330
16252
100
AcDbEntity
  8
0
100
AcDbBlockEnd
  0
BLOCK
  5
16264
330
1625C
100
AcDbEntity
  8
0
100
AcDbBlockBegin
  2
*D17
 70
     1
 10
0.0
 20
0.0
 30
0.0
  3
*D17
  1

  0
LINE
  5
162A9
330
1625C
100
AcDbEntity
  8
moji
 62
     5
370
    -2
100
AcDbLine
 10
4424.786020879765
 20
19894.07274056208
 30
0.0
 11
4424.786020879765
 21
19756.64890872156
 31
0.0
  0
LINE
  5
162AA
330
1625C
100
AcDbEntity
  8
moji
 62
     5
370
    -2
100
AcDbLine
 10
4348.786020879765
 20
19894.07274056208
 30
0.0
 11
4348.786020879765
 21
19756.64890872156
 31
0.0
  0
LINE
  5
162AB
330
1625C
100
AcDbEntity
  8
moji
 62
     5
370
    -2
100
AcDbLine
 10
4425.786020879765
 20
19761.64890872156
 30
0.0
 11
4347.786020879765
 21
19761.64890872156
 31
0.0
  0
MTEXT
  5
162AC
330
1625C
100
AcDbEntity
  8
moji
 62
     0
100
AcDbMText
 10
4386.786020879766
 20
19768.64890872156
 30
0.0
 40
10.0
 41
0.0
 71
     5
 72
     1
  1
76
 73
     1
 44
1.0
  0
POINT
  5
162AD
330
1625C
100
AcDbEntity
  8
Defpoints
 62
     0
100
AcDbPoint
 10
4424.786020879765
 20
19899.07274056208
 30
0.0
  0
POINT
  5
162AE
330
1625C
100
AcDbEntity
  8
Defpoints
 62
     0
100
AcDbPoint
 10
4348.786020879765
 20
19899.07274056208
 30
0.0
  0
POINT
  5
162AF
330
1625C
100
AcDbEntity
  8
Defpoints
 62
     0
100
AcDbPoint
 10
4348.786020879765
 20
19761.64890872156
 30
0.0
  0
ENDBLK
  5
16265
330
1625C
100
AcDbEntity
  8
0
100
AcDbBlockEnd
  0
BLOCK
  5
16270
330
16266
100
AcDbEntity
  8
0
100
AcDbBlockBegin
  2
*D18
 70
     1
 10
0.0
 20
0.0
 30
0.0
  3
*D18
  1

  0
LINE
  5
162B0
330
16266
100
AcDbEntity
  8
moji
 62
     5
370
    -2
100
AcDbLine
 10
4382.455893860571
 20
19874.55349828294
 30
0.0
 11
4352.53862914675
 21
19891.82623911458
 31
0.0
  0
LINE
  5
162B1
330
16266
100
AcDbEntity
  8
moji
 62
     5
370
    -2
100
AcDbLine
 10
4359.955893860568
 20
19835.58235510294
 30
0.0
 11
4330.038629146748
 21
19852.85509593458
 31
0.0
  0
LINE
  5
162B2
330
16266
100
AcDbEntity
  8
moji
 62
     5
370
    -2
100
AcDbLine
 10
4356.868756165941
 20
19889.32623911505
 30
0.0
 11
4357.368756165849
 21
19890.19226451888
 31
0.0
  0
LINE
  5
162B3
330
16266
100
AcDbEntity
  8
moji
 62
     5
370
    -2
100
AcDbLine
 10
4334.36875616594
 20
19850.35509593505
 30
0.0
 11
4333.868756166034
 21
19849.48907053121
 31
0.0
  0
LINE
  5
162B4
330
16266
100
AcDbEntity
  8
moji
 62
     5
370
    -2
100
AcDbLine
 10
4356.868756165941
 20
19889.32623911505
 30
0.0
 11
4334.36875616594
 21
19850.35509593505
 31
0.0
  0
MTEXT
  5
162B5
330
16266
100
AcDbEntity
  8
moji
 62
     0
100
AcDbMText
 10
4333.403087794119
 20
19862.68250925399
 30
0.0
 40
10.0
 41
0.0
 71
     5
 72
     1
  1
45
 11
0.499999999906702
 21
0.8660254038383042
 31
0.0
 73
     1
 44
1.0
  0
POINT
  5
162B6
330
16266
100
AcDbEntity
  8
Defpoints
 62
     0
100
AcDbPoint
 10
4386.786020879763
 20
19872.0534982834
 30
0.0
  0
POINT
  5
162B7
330
16266
100
AcDbEntity
  8
Defpoints
 62
     0
100
AcDbPoint
 10
4364.28602087976
 20
19833.0823551034
 30
0.0
  0
POINT
  5
162B8
330
16266
100
AcDbEntity
  8
Defpoints
 62
     0
100
AcDbPoint
 10
4334.36875616594
 20
19850.35509593505
 30
0.0
  0
ENDBLK
  5
16271
330
16266
100
AcDbEntity
  8
0
100
AcDbBlockEnd
  0
BLOCK
  5
1627A
330
16272
100
AcDbEntity
  8
0
100
AcDbBlockBegin
  2
*D19
 70
     1
 10
0.0
 20
0.0
 30
0.0
  3
*D19
  1

  0
LINE
  5
162B9
330
16272
100
AcDbEntity
  8
moji
 62
     5
370
    -2
100
AcDbLine
 10
4364.286020879762
 20
19828.0823551034
 30
0.0
 11
4364.286020879762
 21
19780.53529287179
 31
0.0
  0
LINE
  5
162BA
330
16272
100
AcDbEntity
  8
moji
 62
     5
370
    -2
100
AcDbLine
 10
4409.286020879761
 20
19828.0823551034
 30
0.0
 11
4409.286020879761
 21
19780.53529287179
 31
0.0
  0
LINE
  5
162BB
330
16272
100
AcDbEntity
  8
moji
 62
     5
370
    -2
100
AcDbLine
 10
4363.286020879762
 20
19785.53529287179
 30
0.0
 11
4410.286020879762
 21
19785.53529287179
 31
0.0
  0
MTEXT
  5
162BC
330
16272
100
AcDbEntity
  8
moji
 62
     0
100
AcDbMText
 10
4386.786020879762
 20
19792.53529287179
 30
0.0
 40
10.0
 41
0.0
 71
     5
 72
     1
  1
45
 73
     1
 44
1.0
  0
POINT
  5
162BD
330
16272
100
AcDbEntity
  8
Defpoints
 62
     0
100
AcDbPoint
 10
4364.286020879762
 20
19833.0823551034
 30
0.0
  0
POINT
  5
162BE
330
16272
100
AcDbEntity
  8
Defpoints
 62
     0
100
AcDbPoint
 10
4409.286020879761
 20
19833.0823551034
 30
0.0
  0
POINT
  5
162BF
330
16272
100
AcDbEntity
  8
Defpoints
 62
     0
100
AcDbPoint
 10
4409.286020879761
 20
19785.53529287179
 30
0.0
  0
ENDBLK
  5
1627B
330
16272
100
AcDbEntity
  8
0
100
AcDbBlockEnd
  0
BLOCK
  5
16284
330
1627C
100
AcDbEntity
  8
0
100
AcDbBlockBegin
  2
*D20
 70
     1
 10
0.0
 20
0.0
 30
0.0
  3
*D20
  1

  0
LINE
  5
162C0
330
1627C
100
AcDbEntity
  8
sen1
 62
     5
370
    -2
100
AcDbLine
 10
4414.786020879762
 20
20316.21177105496
 30
0.0
 11
4414.786020879762
 21
20351.87214298673
 31
0.0
  0
LINE
  5
162C1
330
1627C
100
AcDbEntity
  8
sen1
 62
     5
370
    -2
100
AcDbLine
 10
4358.786020879763
 20
20316.21177105496
 30
0.0
 11
4358.786020879763
 21
20351.87214298673
 31
0.0
  0
LINE
  5
162C2
330
1627C
100
AcDbEntity
  8
sen1
 62
     5
370
    -2
100
AcDbLine
 10
4415.786020879762
 20
20346.87214298673
 30
0.0
 11
4357.786020879763
 21
20346.87214298673
 31
0.0
  0
MTEXT
  5
162C3
330
1627C
100
AcDbEntity
  8
sen1
 62
     0
100
AcDbMText
 10
4386.786020879762
 20
20353.87214298673
 30
0.0
 40
10.0
 41
0.0
 71
     5
 72
     1
  1
56
 73
     1
 44
1.0
  0
POINT
  5
162C4
330
1627C
100
AcDbEntity
  8
Defpoints
 62
     0
100
AcDbPoint
 10
4414.786020879762
 20
20311.21177105497
 30
0.0
  0
POINT
  5
162C5
330
1627C
100
AcDbEntity
  8
Defpoints
 62
     0
100
AcDbPoint
 10
4358.786020879763
 20
20311.21177105497
 30
0.0
  0
POINT
  5
162C6
330
1627C
100
AcDbEntity
  8
Defpoints
 62
     0
100
AcDbPoint
 10
4358.786020879763
 20
20346.87214298673
 30
0.0
  0
ENDBLK
  5
16285
330
1627C
100
AcDbEntity
  8
0
100
AcDbBlockEnd
  0
BLOCK
  5
1628E
330
16286
100
AcDbEntity
  8
0
100
AcDbBlockBegin
  2
*D21
 70
     1
 10
0.0
 20
0.0
 30
0.0
  3
*D21
  1

  0
LINE
  5
162C7
330
16286
100
AcDbEntity
  8
moji
 62
     5
370
    -2
100
AcDbLine
 10
4480.581236910128
 20
20009.07274056208
 30
0.0
 11
4531.376452940495
 21
20009.07274056208
 31
0.0
  0
LINE
  5
162C8
330
16286
100
AcDbEntity
  8
moji
 62
     5
370
    -2
100
AcDbLine
 10
4485.581236910131
 20
19899.07274056208
 30
0.0
 11
4531.376452940495
 21
19899.07274056208
 31
0.0
  0
LINE
  5
162C9
330
16286
100
AcDbEntity
  8
moji
 62
     5
370
    -2
100
AcDbLine
 10
4526.376452940495
 20
20010.07274056208
 30
0.0
 11
4526.376452940495
 21
19898.07274056208
 31
0.0
  0
MTEXT
  5
162CA
330
16286
100
AcDbEntity
  8
moji
 62
     0
100
AcDbMText
 10
4533.376452940491
 20
19954.07274056208
 30
0.0
 40
10.0
 41
0.0
 71
     5
 72
     1
  1
110
 11
0.0000000000000001
 21
1.0
 31
0.0
 73
     1
 44
1.0
  0
POINT
  5
162CB
330
16286
100
AcDbEntity
  8
Defpoints
 62
     0
100
AcDbPoint
 10
4475.581236910128
 20
20009.07274056208
 30
0.0
  0
POINT
  5
162CC
330
16286
100
AcDbEntity
  8
Defpoints
 62
     0
100
AcDbPoint
 10
4480.58123691013
 20
19899.07274056208
 30
0.0
  0
POINT
  5
162CD
330
16286
100
AcDbEntity
  8
Defpoints
 62
     0
100
AcDbPoint
 10
4526.376452940495
 20
19899.07274056208
 30
0.0
  0
ENDBLK
  5
1628F
330
16286
100
AcDbEntity
  8
0
100
AcDbBlockEnd
  0
BLOCK
  5
16296
330
16290
100
AcDbEntity
  8
0
100
AcDbBlockBegin
  2
*D22
 70
     1
 10
0.0
 20
0.0
 30
0.0
  3
*D22
  1

  0
LINE
  5
162CE
330
16290
100
AcDbEntity
  8
sen1
 62
     5
370
    -2
100
AcDbLine
 10
4476.2538326806
 20
20325.46905899868
 30
0.0
 11
4391.723718672025
 21
20311.9986258778
 31
0.0
  0
MTEXT
  5
162CF
330
16290
100
AcDbEntity
  8
sen1
 62
     0
100
AcDbMText
 10
4457.541113802875
 20
20329.57538703977
 30
0.0
 40
10.0
 41
0.0
 71
     5
 72
     1
  1
M-10
 11
0.9875395584540667
 21
0.1573709645657254
 31
0.0
 73
     1
 44
1.0
  0
LINE
  5
162D0
330
16290
100
AcDbEntity
  8
sen1
 62
     5
370
    -2
100
AcDbLine
 10
4386.786020879753
 20
20311.21177105497
 30
0.0
 11
4391.723718672025
 21
20311.9986258778
 31
0.0
  0
POINT
  5
162D1
330
16290
100
AcDbEntity
  8
Defpoints
 62
     0
100
AcDbPoint
 10
4391.723718672025
 20
20311.9986258778
 30
0.0
  0
POINT
  5
162D2
330
16290
100
AcDbEntity
  8
Defpoints
 62
     0
100
AcDbPoint
 10
4386.786020879753
 20
20311.21177105497
 30
0.0
  0
ENDBLK
  5
16297
330
16290
100
AcDbEntity
  8
0
100
AcDbBlockEnd
  0
BLOCK
  5
162A0
330
16298
100
AcDbEntity
  8
0
100
AcDbBlockBegin
  2
*D23
 70
     1
 10
0.0
 20
0.0
 30
0.0
  3
*D23
  1

  0
LINE
  5
162D3
330
16298
100
AcDbEntity
  8
moji
 62
     5
370
    -2
100
AcDbLine
 10
5611.786020879763
 20
19999.07274056208
 30
0.0
 11
5650.815197370016
 21
19999.07274056208
 31
0.0
  0
LINE
  5
162D4
330
16298
100
AcDbEntity
  8
moji
 62
     5
370
    -2
100
AcDbLine
 10
5611.786020879763
 20
19899.07274056208
 30
0.0
 11
5650.815197370016
 21
19899.07274056208
 31
0.0
  0
LINE
  5
162D5
330
16298
100
AcDbEntity
  8
moji
 62
     5
370
    -2
100
AcDbLine
 10
5645.815197370016
 20
20000.07274056208
 30
0.0
 11
5645.815197370016
 21
19898.07274056208
 31
0.0
  0
MTEXT
  5
162D6
330
16298
100
AcDbEntity
  8
moji
 62
     0
100
AcDbMText
 10
5653.415197370012
 20
19949.07274056208
 30
0.0
 40
15.0
 41
0.0
 71
     5
 72
     1
  1
100
 11
0.0000000000000001
 21
1.0
 31
0.0
 73
     1
 44
1.0
  0
POINT
  5
162D7
330
16298
100
AcDbEntity
  8
Defpoints
 62
     0
100
AcDbPoint
 10
5606.786020879763
 20
19999.07274056208
 30
0.0
  0
POINT
  5
162D8
330
16298
100
AcDbEntity
  8
Defpoints
 62
     0
100
AcDbPoint
 10
5606.786020879763
 20
19899.07274056208
 30
0.0
  0
POINT
  5
162D9
330
16298
100
AcDbEntity
  8
Defpoints
 62
     0
100
AcDbPoint
 10
5645.815197370016
 20
19899.07274056208
 30
0.0
  0
ENDBLK
  5
162A1
330
16298
100
AcDbEntity
  8
0
100
AcDbBlockEnd
  0
BLOCK
  5
1635C
330
162DB
100
AcDbEntity
  8
0
100
AcDbBlockBegin
  2
*Paper_Space24
 70
     0
 10
0.0
 20
0.0
 30
0.0
  3
*Paper_Space24
  1

  0
VIEWPORT
  5
162DC
330
162DB
100
AcDbEntity
  8
0
370
     9
100
AcDbViewport
 10
213.2612278676649
 20
149.850513491909
 30
0.0
 40
500.0857293484592
 41
334.082167739012
 69
     0
 12
213.2612278676649
 22
149.850513491909
 13
0.0
 23
0.0
 14
10.0
 24
10.0
 15
10.0
 25
10.0
 16
0.0
 26
0.0
 36
1.0
 17
0.0
 27
0.0
 37
0.0
 42
50.0
 43
0.0
 44
0.0
 45
334.082167739012
 50
0.0
 51
0.0
 72
   100
 90
    32800
  1

281
     0
 71
     1
 74
     0
110
0.0
120
0.0
130
0.0
111
1.0
121
0.0
131
0.0
112
0.0
122
1.0
132
0.0
 79
     0
146
0.0
  0
VIEWPORT
  5
162DD
330
162DB
100
AcDbEntity
  8
sen1
370
     5
100
AcDbViewport
 10
210.9407682378411
 20
140.1289672467944
 30
0.0
 40
394.0359966998184
 41
278.8803617689775
 69
     0
 12
4372.035942356813
 22
20082.13032359196
 13
0.0
 23
0.0
 14
10.0
 24
10.0
 15
10.0
 25
10.0
 16
0.0
 26
0.0
 36
1.0
 17
0.0
 27
0.0
 37
0.0
 42
50.0
 43
0.0
 44
0.0
 45
2231.04289415182
 50
0.0
 51
0.0
 72
   100
 90
    32864
  1

281
     0
 71
     1
 74
     0
110
0.0
120
0.0
130
0.0
111
1.0
121
0.0
131
0.0
112
0.0
122
1.0
132
0.0
 79
     0
146
0.0
  0
LINE
  5
162DE
330
162DB
100
AcDbEntity
  8
sen1
370
     5
100
AcDbLine
 10
348.8846491503418
 20
10.61561031538236
 30
0.0
 11
348.8846491503418
 21
0.6168373408423804
 31
0.0
  0
MTEXT
  5
162DF
330
162DB
100
AcDbEntity
  8
moji
370
     5
100
AcDbMText
 10
73.88464915034183
 20
8.115610315382367
 30
0.0
 40
2.5
 41
50.0
 71
     5
 72
     5
  1
{\C7;名　　　　　称}
 73
     1
 44
1.0
  0
MTEXT
  5
162E0
330
162DB
100
AcDbEntity
  8
moji
 62
     2
100
AcDbMText
 10
123.8846491503418
 20
8.115610315382367
 30
0.0
 40
2.5
 41
50.0
 71
     5
 72
     5
  1

 73
     1
 44
1.0
  0
MTEXT
  5
162E1
330
162DB
100
AcDbEntity
  8
moji
370
     5
100
AcDbMText
 10
123.8846491503418
 20
8.115610315382367
 30
0.0
 40
2.5
 41
50.0
 71
     5
 72
     5
  1
{\C7;材　　　　　質}
 73
     1
 44
1.0
  0
MTEXT
  5
162E2
330
162DB
100
AcDbEntity
  8
moji
370
     5
100
AcDbMText
 10
378.4216991503418
 20
3.115610315382367
 30
0.0
 40
2.5
 41
59.0741
 71
     5
 72
     5
  1
{\C7;バードマスター株式会社}
 73
     1
 44
1.0
  0
LINE
  5
162E3
330
162DB
100
AcDbEntity
  8
0
370
     5
100
AcDbLine
 10
366.0288692525731
 20
6.23044490122308
 30
0.0
 11
366.6740256269077
 21
6.23044490122308
 31
0.0
  0
LINE
  5
162E4
330
162DB
100
AcDbEntity
  8
0
370
     5
100
AcDbLine
 10
364.632701841155
 20
9.723051167064937
 30
0.0
 11
364.1385777745824
 21
7.79294490122308
 31
0.0
  0
LINE
  5
162E5
330
162DB
100
AcDbEntity
  8
0
370
     5
100
AcDbLine
 10
363.3976748506772
 20
7.29294490122308
 30
0.0
 11
364.0105734062952
 21
7.29294490122308
 31
0.0
  0
LINE
  5
162E6
330
162DB
100
AcDbEntity
  8
0
370
     5
100
AcDbLine
 10
363.7514839499816
 20
7.792944901223073
 30
0.0
 11
364.1385777745824
 21
7.792944901223073
 31
0.0
  0
LINE
  5
162E7
330
162DB
100
AcDbEntity
  8
0
370
     5
100
AcDbLine
 10
363.3976748506772
 20
7.29294490122308
 30
0.0
 11
363.7514839499816
 21
7.79294490122308
 31
0.0
  0
SPLINE
  5
162E8
330
162DB
100
AcDbEntity
  8
0
370
     5
100
AcDbSpline
210
0.0
220
0.0
230
1.0
 70
     8
 71
     3
 72
    11
 73
     7
 74
     5
 42
0.0000000001
 43
0.0000000001
 44
0.0000000001
 40
0.0
 40
0.0
 40
0.0
 40
0.0
 40
0.3683125951836156
 40
0.576652249013034
 40
0.9309622228054632
 40
1.268281931826512
 40
1.268281931826512
 40
1.268281931826512
 40
1.268281931826512
 10
364.6557297806299
 20
7.29294490122308
 30
0.0
 10
364.7787721083382
 20
7.301957159211685
 30
0.0
 10
364.9714145428479
 20
7.316067289860962
 30
0.0
 10
365.267205837697
 20
7.045258778995177
 30
0.0
 10
364.8627053709261
 20
6.834325037998455
 30
0.0
 10
364.648296740458
 20
6.848521192269043
 30
0.0
 10
364.5437259583786
 20
6.85544490122308
 30
0.0
 11
364.6557297806299
 21
7.29294490122308
 31
0.0
 11
365.0210119407058
 21
7.245795019980931
 31
0.0
 11
365.1616428574127
 21
7.092079839780836
 31
0.0
 11
364.880381023999
 21
6.876609798722839
 31
0.0
 11
364.5437259583786
 21
6.85544490122308
 31
0.0
  0
SPLINE
  5
162E9
330
162DB
100
AcDbEntity
  8
0
370
     5
100
AcDbSpline
210
0.0
220
0.0
230
1.0
 70
     8
 71
     3
 72
    11
 73
     7
 74
     0
 42
0.0000000001
 43
0.0000000001
 40
11.28374735643573
 40
11.28374735643573
 40
11.28374735643573
 40
11.28374735643573
 40
19.24875081026834
 40
26.28230567960155
 40
32.44434280281309
 40
62.76110915332036
 40
62.76110915332036
 40
62.76110915332036
 40
62.76110915332036
 10
365.48070884998
 20
7.640548119205575
 30
0.0
 10
365.6484360790805
 20
7.580689147545932
 30
0.0
 10
365.9521230340601
 20
7.413397062681283
 30
0.0
 10
365.9270979580696
 20
6.884864596699429
 30
0.0
 10
365.1889754468571
 20
6.287511304319892
 30
0.0
 10
364.3968679799504
 20
6.256345852643995
 30
0.0
 10
363.7385641236849
 20
6.23044490122308
 30
0.0
  0
LINE
  5
162EA
330
162DB
100
AcDbEntity
  8
0
370
     5
100
AcDbLine
 10
364.6557297806299
 20
7.29294490122308
 30
0.0
 11
364.5437259583786
 21
6.85544490122308
 31
0.0
  0
LINE
  5
162EB
330
162DB
100
AcDbEntity
  8
0
370
     5
100
AcDbLine
 10
365.1178527551306
 20
9.09805116706493
 30
0.0
 11
364.7837341489171
 21
7.79294490122308
 31
0.0
  0
LINE
  5
162EC
330
162DB
100
AcDbEntity
  8
0
370
     5
100
AcDbLine
 10
366.9230069700432
 20
9.72305116706493
 30
0.0
 11
367.5681633443779
 21
9.72305116706493
 31
0.0
  0
LINE
  5
162ED
330
162DB
100
AcDbEntity
  8
0
370
     5
100
AcDbLine
 10
364.0105734062952
 20
7.29294490122308
 30
0.0
 11
363.7385641236849
 21
6.23044490122308
 31
0.0
  0
LINE
  5
162EE
330
162DB
100
AcDbEntity
  8
0
370
     5
100
AcDbLine
 10
366.9230069700432
 20
9.72305116706493
 30
0.0
 11
366.0288692525731
 21
6.23044490122308
 31
0.0
  0
LINE
  5
162EF
330
162DB
100
AcDbEntity
  8
0
370
     5
100
AcDbLine
 10
367.5681633443779
 20
9.72305116706493
 30
0.0
 11
366.6740256269077
 21
6.23044490122308
 31
0.0
  0
LINE
  5
162F0
330
162DB
100
AcDbEntity
  8
0
370
     5
100
AcDbLine
 10
367.8907415315452
 20
9.72305116706493
 30
0.0
 11
366.9966038140751
 21
6.23044490122308
 31
0.0
  0
LINE
  5
162F1
330
162DB
100
AcDbEntity
  8
0
370
     5
100
AcDbLine
 10
368.3758924455209
 20
9.09805116706493
 30
0.0
 11
368.0417738393074
 21
7.792944901223073
 31
0.0
  0
SPLINE
  5
162F2
330
162DB
100
AcDbEntity
  8
0
370
     5
100
AcDbSpline
210
0.0
220
0.0
230
1.0
 70
     8
 71
     3
 72
    11
 73
     7
 74
     0
 42
0.0000000001
 43
0.0000000001
 40
0.0
 40
0.0
 40
0.0
 40
0.0
 40
9.99542598367776
 40
30.46384601694259
 40
43.85507980794651
 40
54.52778084958222
 40
54.52778084958222
 40
54.52778084958222
 40
54.52778084958222
 10
367.8907415315452
 20
9.72305116706493
 30
0.0
 10
368.1196303676486
 20
9.720624721775834
 30
0.0
 10
369.4275159443867
 20
9.557106559633204
 30
0.0
 10
369.6197318833977
 20
8.500692569409949
 30
0.0
 10
369.2816160693361
 20
7.987619386023887
 30
0.0
 10
368.9474024378759
 20
7.728930825314265
 30
0.0
 10
368.7387485403712
 20
7.64054811920819
 30
0.0
  0
SPLINE
  5
162F3
330
162DB
100
AcDbEntity
  8
0
370
     5
100
AcDbSpline
210
0.0
220
0.0
230
1.0
 70
     8
 71
     3
 72
    11
 73
     7
 74
     5
 42
0.0000000001
 43
0.0000000001
 44
0.0000000001
 40
0.0
 40
0.0
 40
0.0
 40
0.0
 40
0.4161877899730531
 40
0.8130865206951352
 40
1.39074731960791
 40
1.828733096006292
 40
1.828733096006292
 40
1.828733096006292
 40
1.828733096006292
 10
368.3758924455209
 20
9.09805116706493
 30
0.0
 10
368.5055035563367
 20
9.031463090060375
 30
0.0
 10
368.7587186906478
 20
8.901373094256031
 30
0.0
 10
368.8405660881132
 20
8.371017272854359
 30
0.0
 10
368.4676974390117
 20
8.006687586445046
 30
0.0
 10
368.1715797162334
 20
7.85076103073161
 30
0.0
 10
368.0438823913281
 20
7.78351951658152
 30
0.0
 11
368.3758924455209
 21
9.09805116706493
 31
0.0
 11
368.7109199659957
 21
8.851132481973813
 31
0.0
 11
368.7777469854681
 21
8.459900131678956
 31
0.0
 11
368.4217639242973
 21
8.004962708773355
 31
0.0
 11
368.0438823913281
 21
7.78351951658152
 31
0.0
  0
SPLINE
  5
162F4
330
162DB
100
AcDbEntity
  8
0
370
     5
100
AcDbSpline
210
0.0
220
0.0
230
1.0
 70
     8
 71
     3
 72
    11
 73
     7
 74
     0
 42
0.0000000001
 43
0.0000000001
 40
0.0
 40
0.0
 40
0.0
 40
0.0
 40
9.99542598367776
 40
30.46384601694259
 40
43.85507980794651
 40
54.52778084958222
 40
54.52778084958222
 40
54.52778084958222
 40
54.52778084958222
 10
364.632701841155
 20
9.723051167064937
 30
0.0
 10
364.8615906772583
 20
9.720624721775841
 30
0.0
 10
366.1694762539964
 20
9.557106559633211
 30
0.0
 10
366.3616921930074
 20
8.500692569409949
 30
0.0
 10
366.0235763789458
 20
7.987619386023887
 30
0.0
 10
365.6893627474857
 20
7.728930825314265
 30
0.0
 10
365.4807088499809
 20
7.640548119208197
 30
0.0
  0
SPLINE
  5
162F5
330
162DB
100
AcDbEntity
  8
0
370
     5
100
AcDbSpline
210
0.0
220
0.0
230
1.0
 70
     8
 71
     3
 72
    11
 73
     7
 74
     5
 42
0.0000000001
 43
0.0000000001
 44
0.0000000001
 40
0.0
 40
0.0
 40
0.0
 40
0.0
 40
0.4161877899730947
 40
0.8130865206951742
 40
1.390747319607979
 40
1.828733096006262
 40
1.828733096006262
 40
1.828733096006262
 40
1.828733096006262
 10
365.1178527551306
 20
9.09805116706493
 30
0.0
 10
365.2474638659465
 20
9.031463090060384
 30
0.0
 10
365.5006790002577
 20
8.901373094256065
 30
0.0
 10
365.582526397723
 20
8.371017272854333
 30
0.0
 10
365.2096577486215
 20
8.00668758644511
 30
0.0
 10
364.9135400258431
 20
7.850761030731625
 30
0.0
 10
364.7858427009379
 20
7.783519516581527
 30
0.0
 11
365.1178527551306
 21
9.09805116706493
 31
0.0
 11
365.4528802756055
 21
8.85113248197382
 31
0.0
 11
365.5197072950779
 21
8.459900131678956
 31
0.0
 11
365.163724233907
 21
8.004962708773362
 31
0.0
 11
364.7858427009379
 21
7.783519516581527
 31
0.0
  0
SPLINE
  5
162F6
330
162DB
100
AcDbEntity
  8
0
370
     5
100
AcDbSpline
210
0.0
220
0.0
230
1.0
 70
     8
 71
     3
 72
     9
 73
     5
 74
     0
 42
0.0000000001
 43
0.0000000001
 40
0.0
 40
0.0
 40
0.0
 40
0.0
 40
6.006996181324775
 40
11.35988105465453
 40
11.35988105465453
 40
11.35988105465453
 40
11.35988105465453
 10
367.9137694710211
 20
7.292944901225695
 30
0.0
 10
368.0383151847383
 20
7.300354487405897
 30
0.0
 10
368.302967172849
 20
7.266382005271815
 30
0.0
 10
368.4955452494526
 20
7.069899363030586
 30
0.0
 10
368.4695536438533
 20
6.943846652871016
 30
0.0
  0
SPLINE
  5
162F7
330
162DB
100
AcDbEntity
  8
0
370
     5
100
AcDbSpline
210
0.0
220
0.0
230
1.0
 70
     8
 71
     3
 72
     9
 73
     5
 74
     0
 42
0.0000000001
 43
0.0000000001
 40
11.28374735643573
 40
11.28374735643573
 40
11.28374735643573
 40
11.28374735643573
 40
19.24875081026834
 40
24.90900566825834
 40
24.90900566825834
 40
24.90900566825834
 40
24.90900566825834
 10
368.7387485403712
 20
7.64054811920819
 30
0.0
 10
368.9064757694716
 20
7.580689147548547
 30
0.0
 10
369.1671270934217
 20
7.424889339690871
 30
0.0
 10
369.1752356102714
 20
7.210176328066431
 30
0.0
 10
369.1603078509639
 20
7.121957108730683
 30
0.0
  0
LINE
  5
162F8
330
162DB
100
AcDbEntity
  8
0
370
     5
100
AcDbLine
 10
370.1487888417167
 20
9.72305116706493
 30
0.0
 11
369.2546511242466
 21
6.23044490122308
 31
0.0
  0
LINE
  5
162F9
330
162DB
100
AcDbEntity
  8
0
370
     5
100
AcDbLine
 10
366.9966038140751
 20
6.23044490122308
 30
0.0
 11
367.6417601884098
 21
6.23044490122308
 31
0.0
  0
LINE
  5
162FA
330
162DB
100
AcDbEntity
  8
0
370
     5
100
AcDbLine
 10
380.1552456126751
 20
9.677786491132131
 30
0.0
 11
381.0997093994613
 21
9.677786491132131
 31
0.0
  0
LINE
  5
162FB
330
162DB
100
AcDbEntity
  8
0
370
     5
100
AcDbLine
 10
367.9137694710208
 20
7.292944901225681
 30
0.0
 11
367.6417601884098
 21
6.23044490122308
 31
0.0
  0
LINE
  5
162FC
330
162DB
100
AcDbEntity
  8
0
370
     5
100
AcDbLine
 10
368.4695536438533
 20
6.943846652871016
 30
0.0
 11
368.2869165627445
 21
6.23044490122308
 31
0.0
  0
LINE
  5
162FD
330
162DB
100
AcDbEntity
  8
0
370
     5
100
AcDbLine
 10
369.1603078509639
 20
7.121957108730683
 30
0.0
 11
368.9320729370793
 21
6.23044490122308
 31
0.0
  0
LINE
  5
162FE
330
162DB
100
AcDbEntity
  8
0
370
     5
100
AcDbLine
 10
370.6259101884962
 20
9.043537829090595
 30
0.0
 11
370.0787579141647
 21
6.929446107110948
 31
0.0
  0
SPLINE
  5
162FF
330
162DB
100
AcDbEntity
  8
0
370
     5
100
AcDbSpline
210
0.0
220
0.0
230
1.0
 70
     8
 71
     3
 72
    13
 73
     9
 74
     7
 42
0.0000000001
 43
0.0000000001
 44
0.0000000001
 40
0.0
 40
0.0
 40
0.0
 40
0.0
 40
1.409241115267243
 40
2.40587852200531
 40
3.343504335965448
 40
4.972975380452223
 40
5.878945548100011
 40
6.926912156032187
 40
6.926912156032187
 40
6.926912156032187
 40
6.926912156032187
 10
370.1487888417167
 20
9.72305116706493
 30
0.0
 10
370.6176127212585
 20
9.681776325271691
 30
0.0
 10
371.4179961972821
 20
9.611311268374247
 30
0.0
 10
372.4203732650347
 20
8.845140236938879
 30
0.0
 10
372.2727405014623
 20
7.537337536379723
 30
0.0
 10
371.4309763304535
 20
6.592169099143019
 30
0.0
 10
370.252651509491
 20
6.292199481728303
 30
0.0
 10
369.6030537691098
 20
6.252003469234225
 30
0.0
 10
369.2546511242466
 20
6.23044490122308
 30
0.0
 11
370.1487888417167
 21
9.72305116706493
 31
0.0
 11
371.5281193724005
 21
9.434247067226849
 31
0.0
 11
372.2628385226643
 21
8.760842366660291
 31
0.0
 11
372.2325852317772
 21
7.823704753822717
 31
0.0
 11
371.1650802105441
 21
6.592604061570838
 31
0.0
 11
370.2978199722878
 21
6.330608596328929
 31
0.0
 11
369.2546511242466
 21
6.23044490122308
 31
0.0
  0
SPLINE
  5
16300
330
162DB
100
AcDbEntity
  8
0
370
     5
100
AcDbSpline
210
0.0
220
0.0
230
1.0
 70
     8
 71
     3
 72
    12
 73
     8
 74
     6
 42
0.0000000001
 43
0.0000000001
 44
0.0000000001
 40
0.0
 40
0.0
 40
0.0
 40
0.0
 40
0.5971207833899442
 40
1.137226253200407
 40
2.245043331751638
 40
2.722964805079515
 40
3.617229052456219
 40
3.617229052456219
 40
3.617229052456219
 40
3.617229052456219
 10
370.6259101884962
 20
9.043537829090595
 30
0.0
 10
370.8192611483907
 20
9.005137820008553
 30
0.0
 10
371.1875011992984
 20
8.932004377552718
 30
0.0
 10
371.875757193236
 20
8.450553933268047
 30
0.0
 10
371.4975026613166
 20
7.559495520977272
 30
0.0
 10
370.838224550854
 20
7.076800711781112
 30
0.0
 10
370.3784176771559
 20
6.987587233762162
 30
0.0
 10
370.0787579141647
 20
6.929446107110948
 30
0.0
 11
370.6259101884962
 21
9.043537829090595
 31
0.0
 11
371.2005582904082
 21
8.881264020590521
 31
0.0
 11
371.6159500903438
 21
8.536063251377242
 31
0.0
 11
371.3173907350582
 21
7.469235715689677
 31
0.0
 11
370.9373765046119
 21
7.179411425254535
 31
0.0
 11
370.0787579141647
 21
6.929446107110948
 31
0.0
  0
LINE
  5
16301
330
162DB
100
AcDbEntity
  8
0
370
     5
100
AcDbLine
 10
372.7862733771421
 20
6.185180225290281
 30
0.0
 11
373.4314297514767
 21
6.185180225290281
 31
0.0
  0
LINE
  5
16302
330
162DB
100
AcDbEntity
  8
0
370
     5
100
AcDbLine
 10
368.2869165627445
 20
6.23044490122308
 30
0.0
 11
368.9320729370793
 21
6.23044490122308
 31
0.0
  0
LINE
  5
16303
330
162DB
100
AcDbEntity
  8
0
370
     5
100
AcDbLine
 10
373.3533599336384
 20
8.400286491132106
 30
0.0
 11
372.7862733771421
 21
6.185180225290281
 31
0.0
  0
LINE
  5
16304
330
162DB
100
AcDbEntity
  8
0
370
     5
100
AcDbLine
 10
376.3436065885798
 20
8.740286491132124
 30
0.0
 11
375.6894770616483
 21
6.185180225290281
 31
0.0
  0
SPLINE
  5
16305
330
162DB
100
AcDbEntity
  8
0
370
     5
100
AcDbSpline
210
0.0
220
0.0
230
1.0
 70
     8
 71
     3
 72
    11
 73
     7
 74
     0
 42
0.0000000001
 43
0.0000000001
 40
0.0
 40
0.0
 40
0.0
 40
0.0
 40
17.59159681167854
 40
25.1194859651702
 40
34.36323600136965
 40
39.83447686908764
 40
39.83447686908764
 40
39.83447686908764
 40
39.83447686908764
 10
373.3533599336384
 20
8.400286491132121
 30
0.0
 10
373.4726796141131
 20
8.7715557160559
 30
0.0
 10
373.6430592033649
 20
9.301700431433935
 30
0.0
 10
374.1296432058581
 20
9.641742392984362
 30
0.0
 10
374.5615263696
 20
9.718463028280908
 30
0.0
 10
374.9775109800015
 20
9.600563384601294
 30
0.0
 10
375.0572230477708
 20
9.366454886910041
 30
0.0
  0
SPLINE
  5
16306
330
162DB
100
AcDbEntity
  8
0
370
     5
100
AcDbSpline
210
0.0
220
0.0
230
1.0
 70
     8
 71
     3
 72
    11
 73
     7
 74
     0
 42
0.0000000001
 43
0.0000000001
 40
20.63988049728201
 40
20.63988049728201
 40
20.63988049728201
 40
20.63988049728201
 40
21.03808777402665
 40
33.63611647905815
 40
40.96999540071692
 40
56.0776740399479
 40
56.0776740399479
 40
56.0776740399479
 40
56.0776740399479
 10
375.0572230477708
 20
9.366454886910041
 30
0.0
 10
375.0572230477708
 20
9.366454886910041
 30
0.0
 10
375.3868082650874
 20
9.641742392984362
 30
0.0
 10
375.8667042599063
 20
9.718567051714977
 30
0.0
 10
376.1152590099861
 20
9.574063369466188
 30
0.0
 10
376.4316015470023
 20
9.348276382942344
 30
0.0
 10
376.3436065885798
 20
8.740286491132124
 30
0.0
  0
SPLINE
  5
16307
330
162DB
100
AcDbEntity
  8
0
370
     5
100
AcDbSpline
210
0.0
220
0.0
230
1.0
 70
     8
 71
     3
 72
    13
 73
     9
 74
     7
 42
0.0000000001
 43
0.0000000001
 44
0.0000000001
 40
0.0
 40
0.0
 40
0.0
 40
0.0
 40
0.3923699811324832
 40
0.5210288625635624
 40
0.68994377455003
 40
0.8346153173607216
 40
1.009515806886917
 40
1.12313306167643
 40
1.12313306167643
 40
1.12313306167643
 40
1.12313306167643
 10
374.0273071516268
 20
8.51274688619133
 30
0.0
 10
374.0660255581579
 20
8.637065489695322
 30
0.0
 10
374.1174398056416
 20
8.802148405549951
 30
0.0
 10
374.2379415383912
 20
9.00701518946462
 30
0.0
 10
374.382849266904
 20
9.061604938207841
 30
0.0
 10
374.5688842641695
 20
9.041832227601473
 30
0.0
 10
374.5997949737034
 20
8.867989173627098
 30
0.0
 10
374.5780067023961
 20
8.776366982127983
 30
0.0
 10
374.5694265591594
 20
8.740286491132124
 30
0.0
 11
374.0273071516268
 21
8.51274688619133
 31
0.0
 11
374.1659118801378
 21
8.879820354761726
 31
0.0
 11
374.2394220744458
 21
8.985410880396806
 31
0.0
 11
374.3956312168011
 21
9.049683357679228
 31
0.0
 11
374.5371027971282
 21
9.019423693784979
 31
0.0
 11
374.5885955385077
 21
8.852275020976243
 31
0.0
 11
374.5694265591594
 21
8.740286491132124
 31
0.0
  0
SPLINE
  5
16308
330
162DB
100
AcDbEntity
  8
0
370
     5
100
AcDbSpline
210
0.0
220
0.0
230
1.0
 70
     8
 71
     3
 72
    13
 73
     9
 74
     7
 42
0.0000000001
 43
0.0000000001
 44
0.0000000001
 40
0.0
 40
0.0
 40
0.0
 40
0.0
 40
0.3951540234375072
 40
0.5273403931908028
 40
0.7120308858823945
 40
0.9107073335729921
 40
1.068590355330472
 40
1.223305026988171
 40
1.223305026988171
 40
1.223305026988171
 40
1.223305026988171
 10
375.154013971935
 20
8.503697059187075
 30
0.0
 10
375.1862323173499
 20
8.633663042656898
 30
0.0
 10
375.22922829849
 20
8.807105064651761
 30
0.0
 10
375.3610942794393
 20
9.003231589421062
 30
0.0
 10
375.4948806176141
 20
9.130836701733826
 30
0.0
 10
375.7200042016748
 20
9.070264770970336
 30
0.0
 10
375.738704529456
 20
8.879071064369615
 30
0.0
 10
375.7105722866187
 20
8.780092439862869
 30
0.0
 10
375.6966487331017
 20
8.731104729095108
 30
0.0
 11
375.154013971935
 21
8.503697059187075
 31
0.0
 11
375.2813639663916
 21
8.877767481902822
 31
0.0
 11
375.3554679199621
 21
8.987229075230274
 31
0.0
 11
375.5051700211614
 21
9.095394961660154
 31
0.0
 11
375.6949754496338
 21
9.036690360568115
 31
0.0
 11
375.7287274394523
 21
8.882457252116765
 31
0.0
 11
375.6966487331017
 21
8.731104729095108
 31
0.0
  0
LINE
  5
16309
330
162DB
100
AcDbEntity
  8
0
370
     5
100
AcDbLine
 10
380.7421257519349
 20
9.052786491132124
 30
0.0
 11
381.709860313437
 21
9.052786491132124
 31
0.0
  0
LINE
  5
1630A
330
162DB
100
AcDbEntity
  8
0
370
     5
100
AcDbLine
 10
375.6966487331017
 20
8.731104729095108
 30
0.0
 11
375.0443206873136
 21
6.185180225290281
 31
0.0
  0
LINE
  5
1630B
330
162DB
100
AcDbEntity
  8
0
370
     5
100
AcDbLine
 10
375.154013971935
 20
8.503697059187075
 30
0.0
 11
374.5604534065625
 21
6.185180225290281
 31
0.0
  0
LINE
  5
1630C
330
162DB
100
AcDbEntity
  8
0
370
     5
100
AcDbLine
 10
374.5694265591594
 20
8.74028649113201
 30
0.0
 11
373.9152970322278
 21
6.185180225290281
 31
0.0
  0
LINE
  5
1630D
330
162DB
100
AcDbEntity
  8
0
370
     5
100
AcDbLine
 10
374.0273071516268
 20
8.512746886191344
 30
0.0
 11
373.4314297514767
 21
6.185180225290281
 31
0.0
  0
LINE
  5
1630E
330
162DB
100
AcDbEntity
  8
0
370
     5
100
AcDbLine
 10
376.5791418053119
 20
8.400286491132106
 30
0.0
 11
376.0120552488156
 21
6.185180225290281
 31
0.0
  0
LINE
  5
1630F
330
162DB
100
AcDbEntity
  8
0
370
     5
100
AcDbLine
 10
378.514610928316
 20
8.400286491132106
 30
0.0
 11
377.9475243718197
 21
6.185180225290281
 31
0.0
  0
SPLINE
  5
16310
330
162DB
100
AcDbEntity
  8
0
370
     5
100
AcDbSpline
210
0.0
220
0.0
230
1.0
 70
     8
 71
     3
 72
    11
 73
     7
 74
     0
 42
0.0000000001
 43
0.0000000001
 40
20.63988049728201
 40
20.63988049728201
 40
20.63988049728201
 40
20.63988049728201
 40
21.03808777402665
 40
33.63611647905815
 40
40.96999540071692
 40
56.0776740399479
 40
56.0776740399479
 40
56.0776740399479
 40
56.0776740399479
 10
376.5791418053119
 20
8.400286491132106
 30
0.0
 10
376.5791418053119
 20
8.400286491132106
 30
0.0
 10
376.9061929662857
 20
9.677786491132131
 30
0.0
 10
378.2228939637115
 20
9.82680736314036
 30
0.0
 10
378.7393283133425
 20
9.052786491132124
 30
0.0
 10
378.514610928316
 20
8.400286491132106
 30
0.0
 10
378.514610928316
 20
8.400286491132106
 30
0.0
  0
SPLINE
  5
16311
330
162DB
100
AcDbEntity
  8
0
370
     5
100
AcDbSpline
210
0.0
220
0.0
230
1.0
 70
     8
 71
     3
 72
    13
 73
     9
 74
     7
 42
0.0000000001
 43
0.0000000001
 44
0.0000000001
 40
0.0
 40
0.0
 40
0.0
 40
0.0
 40
0.3672689040343544
 40
0.6585419028324102
 40
0.8997380250611449
 40
1.098974453491906
 40
1.358880540609021
 40
1.707130457323577
 40
1.707130457323577
 40
1.707130457323577
 40
1.707130457323577
 10
377.2242981796466
 20
8.400286491132106
 30
0.0
 10
377.2580191464504
 20
8.517109767946674
 30
0.0
 10
377.3184834803499
 20
8.726583050774312
 30
0.0
 10
377.4605457759093
 20
9.005880334346581
 30
0.0
 10
377.7021535425308
 20
9.109742590095002
 30
0.0
 10
377.9639337798751
 20
9.015711562142154
 30
0.0
 10
377.9297358045106
 20
8.699768140343236
 30
0.0
 10
377.8914043767765
 20
8.509334811677581
 30
0.0
 10
377.8694545539813
 20
8.400286491132106
 30
0.0
 11
377.2242981796466
 21
8.400286491132106
 31
0.0
 11
377.3389954615348
 21
8.749186163528115
 31
0.0
 11
377.4959064727632
 21
8.994581547315348
 31
0.0
 11
377.7217666183483
 21
9.079214661487526
 31
0.0
 11
377.9052780315893
 21
9.001634279791218
 31
0.0
 11
377.9311814558743
 21
8.743022240762023
 31
0.0
 11
377.8694545539813
 21
8.400286491132106
 31
0.0
  0
LINE
  5
16312
330
162DB
100
AcDbEntity
  8
0
370
     5
100
AcDbLine
 10
377.8694545539812
 20
8.40028649113178
 30
0.0
 11
377.7023816483826
 21
7.747680225290267
 31
0.0
  0
LINE
  5
16313
330
162DB
100
AcDbEntity
  8
0
370
     5
100
AcDbLine
 10
377.2242981796466
 20
8.400286491132163
 30
0.0
 11
377.0572252740478
 21
7.747680225290267
 31
0.0
  0
LINE
  5
16314
330
162DB
100
AcDbEntity
  8
0
370
     5
100
AcDbLine
 10
378.270102558987
 20
6.185180225290281
 30
0.0
 11
379.0937671372917
 21
6.185180225290281
 31
0.0
  0
LINE
  5
16315
330
162DB
100
AcDbEntity
  8
0
370
     5
100
AcDbLine
 10
376.0120552488156
 20
6.185180225290281
 30
0.0
 11
376.6572116231504
 21
6.185180225290281
 31
0.0
  0
LINE
  5
16316
330
162DB
100
AcDbEntity
  8
0
370
     5
100
AcDbLine
 10
375.0443206873136
 20
6.185180225290281
 30
0.0
 11
375.6894770616483
 21
6.185180225290281
 31
0.0
  0
LINE
  5
16317
330
162DB
100
AcDbEntity
  8
0
370
     5
100
AcDbLine
 10
373.9152970322278
 20
6.185180225290281
 30
0.0
 11
374.5604534065625
 21
6.185180225290281
 31
0.0
  0
LINE
  5
16318
330
162DB
100
AcDbEntity
  8
0
370
     5
100
AcDbLine
 10
377.0572252740478
 20
7.747680225290267
 30
0.0
 11
377.7023816483826
 21
7.747680225290267
 31
0.0
  0
LINE
  5
16319
330
162DB
100
AcDbEntity
  8
0
370
     5
100
AcDbLine
 10
376.9292209057606
 20
7.247680225290281
 30
0.0
 11
377.5743772800954
 21
7.247680225290274
 31
0.0
  0
LINE
  5
1631A
330
162DB
100
AcDbEntity
  8
0
370
     5
100
AcDbLine
 10
382.6660544558929
 20
7.747680225290274
 30
0.0
 11
382.9796101172769
 21
7.747680225290274
 31
0.0
  0
LINE
  5
1631B
330
162DB
100
AcDbEntity
  8
0
370
     5
100
AcDbLine
 10
382.2154719004383
 20
7.247680225290281
 30
0.0
 11
382.9899632294477
 21
7.247680225290281
 31
0.0
  0
LINE
  5
1631C
330
162DB
100
AcDbEntity
  8
0
370
     5
100
AcDbLine
 10
377.5743772800954
 20
7.247680225290274
 30
0.0
 11
377.302367997485
 21
6.185180225290281
 31
0.0
  0
LINE
  5
1631D
330
162DB
100
AcDbEntity
  8
0
370
     5
100
AcDbLine
 10
376.9292209057606
 20
7.247680225290281
 30
0.0
 11
376.6572116231504
 21
6.185180225290281
 31
0.0
  0
SPLINE
  5
1631E
330
162DB
100
AcDbEntity
  8
0
370
     5
100
AcDbSpline
210
0.0
220
0.0
230
1.0
 70
     8
 71
     3
 72
    16
 73
    12
 74
     0
 42
0.0000000001
 43
0.0000000001
 40
0.0
 40
0.0
 40
0.0
 40
0.0
 40
14.50316906203068
 40
26.15839375771526
 40
33.51404782586
 40
40.77260337238132
 40
47.87996526066161
 40
53.57380437078887
 40
58.03780981495386
 40
64.26096980462921
 40
75.01831001724628
 40
75.01831001724628
 40
75.01831001724628
 40
75.01831001724628
 10
381.0997093994613
 20
9.677786491132131
 30
0.0
 10
380.8472201981281
 20
9.509849375250624
 30
0.0
 10
380.3918223523336
 20
9.206952457689055
 30
0.0
 10
379.8581936726163
 20
8.769686764694228
 30
0.0
 10
379.5402634349159
 20
8.267220161332623
 30
0.0
 10
379.7161873051868
 20
7.806982992185837
 30
0.0
 10
379.9443097410904
 20
7.465387009122295
 30
0.0
 10
380.0400007359411
 20
7.106601475687924
 30
0.0
 10
379.9607127610617
 20
6.755295116924528
 30
0.0
 10
379.5893627722668
 20
6.470691319931518
 30
0.0
 10
379.2860449644422
 20
6.295501666977543
 30
0.0
 10
379.0937671372916
 20
6.185180225290352
 30
0.0
  0
SPLINE
  5
1631F
330
162DB
100
AcDbEntity
  8
0
370
     5
100
AcDbSpline
210
0.0
220
0.0
230
1.0
 70
     8
 71
     3
 72
    16
 73
    12
 74
    10
 42
0.0000000001
 43
0.0000000001
 44
0.0000000001
 40
0.0
 40
0.0
 40
0.0
 40
0.0
 40
0.9289266155885872
 40
1.487558063808961
 40
2.177623278403813
 40
2.424242728515099
 40
2.776820329388792
 40
3.091654488552125
 40
3.541313400596125
 40
4.240009744002859
 40
4.660193140610345
 40
4.660193140610345
 40
4.660193140610345
 40
4.660193140610345
 10
380.1552456126751
 20
9.677786491132131
 30
0.0
 10
379.8967036362905
 20
9.508493202331594
 30
0.0
 10
379.4826814785116
 20
9.237391489152225
 30
0.0
 10
378.9128788226161
 20
8.774176383464036
 30
0.0
 10
378.7741341706292
 20
8.216416353712004
 30
0.0
 10
378.9615064084329
 20
7.82281046484752
 30
0.0
 10
379.1037584388619
 20
7.560908550376579
 30
0.0
 10
379.3692179974427
 20
7.255698311117136
 30
0.0
 10
379.1363513596575
 20
6.736065596926359
 30
0.0
 10
378.7333083488229
 20
6.411051097103089
 30
0.0
 10
378.3965635062155
 20
6.246845785236915
 30
0.0
 10
378.270102558987
 20
6.185180225290281
 30
0.0
 11
380.1552456126751
 21
9.677786491132131
 31
0.0
 11
379.3892842558326
 21
9.152231682408221
 31
0.0
 11
378.989475036914
 21
8.762075709227595
 31
0.0
 11
378.8540430699531
 21
8.085430911184388
 31
0.0
 11
378.9471525523761
 21
7.857063274562818
 31
0.0
 11
379.1249070860723
 21
7.552573060617781
 31
0.0
 11
379.2857325930742
 21
7.281915150935382
 31
0.0
 11
379.1587650572631
 21
6.850554070133405
 31
0.0
 11
378.6425405708762
 21
6.379715605323625
 31
0.0
 11
378.270102558987
 21
6.185180225290281
 31
0.0
  0
LINE
  5
16320
330
162DB
100
AcDbEntity
  8
0
370
     5
100
AcDbLine
 10
381.709860313437
 20
9.052786491132124
 30
0.0
 11
380.9757280563259
 21
6.185180225290281
 31
0.0
  0
LINE
  5
16321
330
162DB
100
AcDbEntity
  8
0
370
     5
100
AcDbLine
 10
382.3550166877716
 20
9.052786491132124
 30
0.0
 11
381.6208844306606
 21
6.185180225290281
 31
0.0
  0
LINE
  5
16322
330
162DB
100
AcDbEntity
  8
0
370
     5
100
AcDbLine
 10
383.1601785224654
 20
9.677786491132131
 30
0.0
 11
383.0001730621063
 21
9.052786491132124
 31
0.0
  0
LINE
  5
16323
330
162DB
100
AcDbEntity
  8
0
370
     5
100
AcDbLine
 10
381.2247093994613
 20
9.677786491132131
 30
0.0
 11
380.7421257519349
 21
9.052786491132124
 31
0.0
  0
LINE
  5
16324
330
162DB
100
AcDbEntity
  8
0
370
     5
100
AcDbLine
 10
382.3550166877716
 20
9.052786491132124
 30
0.0
 11
383.0001730621063
 21
9.052786491132131
 31
0.0
  0
LINE
  5
16325
330
162DB
100
AcDbEntity
  8
0
370
     5
100
AcDbLine
 10
377.9475243718197
 20
6.185180225290281
 30
0.0
 11
377.302367997485
 21
6.185180225290281
 31
0.0
  0
LINE
  5
16326
330
162DB
100
AcDbEntity
  8
0
370
     5
100
AcDbLine
 10
381.2247093994613
 20
9.677786491132138
 30
0.0
 11
383.1601785224654
 21
9.677786491132138
 31
0.0
  0
LINE
  5
16327
330
162DB
100
AcDbEntity
  8
0
370
     5
100
AcDbLine
 10
380.9757280563259
 20
6.185180225290281
 30
0.0
 11
381.6208844306606
 21
6.185180225290281
 31
0.0
  0
LINE
  5
16328
330
162DB
100
AcDbEntity
  8
0
370
     5
100
AcDbLine
 10
391.8150938256798
 20
6.185180225290281
 30
0.0
 11
392.5885427958039
 21
6.185180225290281
 31
0.0
  0
LINE
  5
16329
330
162DB
100
AcDbEntity
  8
0
370
     5
100
AcDbLine
 10
384.4006552625802
 20
9.677786491132138
 30
0.0
 11
385.4182258326368
 21
9.677786491132138
 31
0.0
  0
LINE
  5
1632A
330
162DB
100
AcDbEntity
  8
0
370
     5
100
AcDbLine
 10
382.6660544558929
 20
7.747680225290274
 30
0.0
 11
382.2154719004382
 21
7.247680225290281
 31
0.0
  0
LINE
  5
1632B
330
162DB
100
AcDbEntity
  8
0
370
     5
100
AcDbLine
 10
384.9241017660643
 20
7.747680225290274
 30
0.0
 11
384.4735192106097
 21
7.247680225290281
 31
0.0
  0
SPLINE
  5
1632C
330
162DB
100
AcDbEntity
  8
0
370
     5
100
AcDbSpline
210
0.0
220
0.0
230
1.0
 70
     8
 71
     3
 72
    10
 73
     6
 74
     0
 42
0.0000000001
 43
0.0000000001
 40
0.0
 40
0.0
 40
0.0
 40
0.0
 40
26.19112590873103
 40
40.98940803847752
 40
41.72531218459136
 40
41.72531218459136
 40
41.72531218459136
 40
41.72531218459136
 10
385.4182258326368
 20
9.677786491132138
 30
0.0
 10
384.9791759768761
 20
9.348320806827125
 30
0.0
 10
384.2920579908175
 20
8.832703287530165
 30
0.0
 10
383.8085995454699
 20
8.080574174508811
 30
0.0
 10
383.7248790272531
 20
7.762804670434476
 30
0.0
 10
383.7211433715966
 20
7.747680225290267
 30
0.0
  0
SPLINE
  5
1632D
330
162DB
100
AcDbEntity
  8
0
370
     5
100
AcDbSpline
210
0.0
220
0.0
230
1.0
 70
     8
 71
     3
 72
     9
 73
     5
 74
     0
 42
0.0000000001
 43
0.0000000001
 40
0.0
 40
0.0
 40
0.0
 40
0.0
 40
22.69091522551075
 40
39.01131959156788
 40
39.01131959156788
 40
39.01131959156788
 40
39.01131959156788
 10
384.4006552625803
 20
9.677786491132138
 30
0.0
 10
384.0371171391585
 20
9.371950670662116
 30
0.0
 10
383.4121048037998
 20
8.846142927063858
 30
0.0
 10
383.0293955488127
 20
8.085550091144789
 30
0.0
 10
382.9796101172768
 20
7.747680225289677
 30
0.0
  0
SPLINE
  5
1632E
330
162DB
100
AcDbEntity
  8
0
370
     5
100
AcDbSpline
210
0.0
220
0.0
230
1.0
 70
     8
 71
     3
 72
    10
 73
     6
 74
     0
 42
0.0000000001
 43
0.0000000001
 40
47.00573219802856
 40
47.00573219802856
 40
47.00573219802856
 40
47.00573219802856
 40
47.71308536983972
 40
54.09531033586397
 40
67.52744589159572
 40
67.52744589159572
 40
67.52744589159572
 40
67.52744589159572
 10
382.9899632294477
 20
7.247680225290281
 30
0.0
 10
382.9928481288209
 20
7.233154686009591
 30
0.0
 10
383.0241533386639
 20
7.088053700375205
 30
0.0
 10
383.1849260176127
 20
6.684294835166816
 30
0.0
 10
383.4781111606944
 20
6.386280084466612
 30
0.0
 10
383.6782493002714
 20
6.185180225290281
 30
0.0
  0
SPLINE
  5
1632F
330
162DB
100
AcDbEntity
  8
0
370
     5
100
AcDbSpline
210
0.0
220
0.0
230
1.0
 70
     8
 71
     3
 72
    10
 73
     6
 74
     0
 42
0.0000000001
 43
0.0000000001
 40
49.72086639217938
 40
49.72086639217938
 40
49.72086639217938
 40
49.72086639217938
 40
49.92468886743607
 40
58.79230099387511
 40
71.56139063351249
 40
71.56139063351249
 40
71.56139063351249
 40
71.56139063351249
 10
383.6994671245768
 20
7.247680225290281
 30
0.0
 10
383.7002903825909
 20
7.243524948037183
 30
0.0
 10
383.7382518656105
 20
7.058867499573693
 30
0.0
 10
383.9726712255448
 20
6.64566621676731
 30
0.0
 10
384.3194396706835
 20
6.356081305100673
 30
0.0
 10
384.5240881151667
 20
6.185180225290281
 30
0.0
  0
LINE
  5
16330
330
162DB
100
AcDbEntity
  8
0
370
     5
100
AcDbLine
 10
383.6994671245768
 20
7.247680225290281
 30
0.0
 11
384.4735192106097
 21
7.247680225290281
 31
0.0
  0
LINE
  5
16331
330
162DB
100
AcDbEntity
  8
0
370
     5
100
AcDbLine
 10
385.7408040217705
 20
9.677786498812757
 30
0.0
 11
384.8466663043004
 21
6.185180232970907
 31
0.0
  0
LINE
  5
16332
330
162DB
100
AcDbEntity
  8
0
370
     5
100
AcDbLine
 10
386.2259549357462
 20
9.05278649881275
 30
0.0
 11
385.8918363295326
 21
7.747680232970893
 31
0.0
  0
SPLINE
  5
16333
330
162DB
100
AcDbEntity
  8
0
370
     5
100
AcDbSpline
210
0.0
220
0.0
230
1.0
 70
     8
 71
     3
 72
    11
 73
     7
 74
     0
 42
0.0000000001
 43
0.0000000001
 40
0.0
 40
0.0
 40
0.0
 40
0.0
 40
9.99542598367776
 40
30.46384601694259
 40
43.85507980794651
 40
54.52778084958222
 40
54.52778084958222
 40
54.52778084958222
 40
54.52778084958222
 10
385.7408040217705
 20
9.677786498812757
 30
0.0
 10
385.9696928578738
 20
9.675360053523661
 30
0.0
 10
387.2775784346119
 20
9.511841891381031
 30
0.0
 10
387.469794373623
 20
8.455427901157776
 30
0.0
 10
387.1316785595614
 20
7.942354717771706
 30
0.0
 10
386.7974649281011
 20
7.683666157062084
 30
0.0
 10
386.5888110305965
 20
7.595283450956017
 30
0.0
  0
SPLINE
  5
16334
330
162DB
100
AcDbEntity
  8
0
370
     5
100
AcDbSpline
210
0.0
220
0.0
230
1.0
 70
     8
 71
     3
 72
    11
 73
     7
 74
     5
 42
0.0000000001
 43
0.0000000001
 44
0.0000000001
 40
0.0
 40
0.0
 40
0.0
 40
0.0
 40
0.4161877899730531
 40
0.8130865206951256
 40
1.390747319607895
 40
1.828733096006228
 40
1.828733096006228
 40
1.828733096006228
 40
1.828733096006228
 10
386.2259549357462
 20
9.05278649881275
 30
0.0
 10
386.355566046562
 20
8.986198421808195
 30
0.0
 10
386.6087811808732
 20
8.856108426003856
 30
0.0
 10
386.6906285783384
 20
8.32575260460217
 30
0.0
 10
386.3177599292371
 20
7.961422918192893
 30
0.0
 10
386.0216422064586
 20
7.80549636247944
 30
0.0
 10
385.8939448815533
 20
7.738254848329347
 30
0.0
 11
386.2259549357462
 21
9.05278649881275
 31
0.0
 11
386.5609824562211
 21
8.805867813721633
 31
0.0
 11
386.6278094756934
 21
8.414635463426776
 31
0.0
 11
386.2718264145226
 21
7.959698040521182
 31
0.0
 11
385.8939448815533
 21
7.738254848329347
 31
0.0
  0
SPLINE
  5
16335
330
162DB
100
AcDbEntity
  8
0
370
     5
100
AcDbSpline
210
0.0
220
0.0
230
1.0
 70
     8
 71
     3
 72
     9
 73
     5
 74
     0
 42
0.0000000001
 43
0.0000000001
 40
0.0
 40
0.0
 40
0.0
 40
0.0
 40
6.006996181324775
 40
11.35988105465453
 40
11.35988105465453
 40
11.35988105465453
 40
11.35988105465453
 10
385.7638319612464
 20
7.247680232973515
 30
0.0
 10
385.8883776749636
 20
7.255089819153724
 30
0.0
 10
386.1530296630743
 20
7.221117337019634
 30
0.0
 10
386.3456077396779
 20
7.024634694778406
 30
0.0
 10
386.3196161340786
 20
6.898581984618843
 30
0.0
  0
SPLINE
  5
16336
330
162DB
100
AcDbEntity
  8
0
370
     5
100
AcDbSpline
210
0.0
220
0.0
230
1.0
 70
     8
 71
     3
 72
     9
 73
     5
 74
     0
 42
0.0000000001
 43
0.0000000001
 40
11.28374735643573
 40
11.28374735643573
 40
11.28374735643573
 40
11.28374735643573
 40
19.24875081026834
 40
24.90900566825834
 40
24.90900566825834
 40
24.90900566825834
 40
24.90900566825834
 10
386.5888110305965
 20
7.595283450956017
 30
0.0
 10
386.756538259697
 20
7.535424479296366
 30
0.0
 10
387.0171895836469
 20
7.379624671438691
 30
0.0
 10
387.0252981004966
 20
7.164911659814251
 30
0.0
 10
387.0103703411892
 20
7.07669244047851
 30
0.0
  0
LINE
  5
16337
330
162DB
100
AcDbEntity
  8
0
370
     5
100
AcDbLine
 10
384.8466663043004
 20
6.185180232970907
 30
0.0
 11
385.4918226786351
 21
6.185180232970907
 31
0.0
  0
LINE
  5
16338
330
162DB
100
AcDbEntity
  8
0
370
     5
100
AcDbLine
 10
385.7638319612461
 20
7.2476802329735
 30
0.0
 11
385.4918226786351
 21
6.185180232970907
 31
0.0
  0
LINE
  5
16339
330
162DB
100
AcDbEntity
  8
0
370
     5
100
AcDbLine
 10
386.3196161340786
 20
6.898581984618843
 30
0.0
 11
386.1369790529698
 21
6.185180232970907
 31
0.0
  0
LINE
  5
1633A
330
162DB
100
AcDbEntity
  8
0
370
     5
100
AcDbLine
 10
387.0103703411892
 20
7.07669244047851
 30
0.0
 11
386.7821354273045
 21
6.185180225290281
 31
0.0
  0
LINE
  5
1633B
330
162DB
100
AcDbEntity
  8
0
370
     5
100
AcDbLine
 10
386.1369790529698
 20
6.185180232970907
 30
0.0
 11
386.7821354273045
 21
6.185180225290281
 31
0.0
  0
LINE
  5
1633C
330
162DB
100
AcDbEntity
  8
0
370
     5
100
AcDbLine
 10
387.7498699882938
 20
6.185180225290281
 30
0.0
 11
388.3950263626285
 21
6.185180225290281
 31
0.0
  0
LINE
  5
1633D
330
162DB
100
AcDbEntity
  8
0
370
     5
100
AcDbLine
 10
388.6440077057639
 20
9.677786491132138
 30
0.0
 11
389.2891640800986
 21
9.677786491132138
 31
0.0
  0
LINE
  5
1633E
330
162DB
100
AcDbEntity
  8
0
370
     5
100
AcDbLine
 10
388.6440077057639
 20
9.677786491132138
 30
0.0
 11
387.7498699882938
 21
6.185180225290281
 31
0.0
  0
LINE
  5
1633F
330
162DB
100
AcDbEntity
  8
0
370
     5
100
AcDbLine
 10
389.2891640800986
 20
9.677786491132138
 30
0.0
 11
388.3950263626285
 21
6.185180225290281
 31
0.0
  0
LINE
  5
16340
330
162DB
100
AcDbEntity
  8
0
370
     5
100
AcDbLine
 10
388.9891946225779
 20
7.246042742781263
 30
0.0
 11
388.7176045497958
 21
6.185180225290281
 31
0.0
  0
LINE
  5
16341
330
162DB
100
AcDbEntity
  8
0
370
     5
100
AcDbLine
 10
389.7086672624808
 20
7.534498109885504
 30
0.0
 11
389.3628298867173
 21
6.185180225290281
 31
0.0
  0
LINE
  5
16342
330
162DB
100
AcDbEntity
  8
0
370
     5
100
AcDbLine
 10
390.2044102894062
 20
7.582718798825283
 30
0.0
 11
389.8466282048815
 21
6.185180225290281
 31
0.0
  0
LINE
  5
16343
330
162DB
100
AcDbEntity
  8
0
370
     5
100
AcDbLine
 10
390.8098836529808
 20
7.427712327986981
 30
0.0
 11
390.4917845792163
 21
6.185180225290281
 31
0.0
  0
LINE
  5
16344
330
162DB
100
AcDbEntity
  8
0
370
     5
100
AcDbLine
 10
383.7211433715966
 20
7.747680225290267
 30
0.0
 11
384.9241017660643
 21
7.747680225290274
 31
0.0
  0
LINE
  5
16345
330
162DB
100
AcDbEntity
  8
0
370
     5
100
AcDbLine
 10
392.3260983263972
 20
8.372680225290281
 30
0.0
 11
393.1485619070606
 21
8.372680225290281
 31
0.0
  0
SPLINE
  5
16346
330
162DB
100
AcDbEntity
  8
0
370
     5
100
AcDbSpline
210
0.0
220
0.0
230
1.0
 70
     8
 71
     3
 72
    11
 73
     7
 74
     5
 42
0.0000000001
 43
0.0000000001
 44
0.0000000001
 40
0.0
 40
0.0
 40
0.0
 40
0.0
 40
1.025633291463329
 40
1.944944168339162
 40
2.493855558883444
 40
3.157640500018898
 40
3.157640500018898
 40
3.157640500018898
 40
3.157640500018898
 10
388.9891946225779
 20
7.246042742781263
 30
0.0
 10
389.077816683503
 20
7.612741246820027
 30
0.0
 10
389.2458737873599
 20
8.30812440462618
 30
0.0
 10
390.1875200241148
 20
8.43474094934487
 30
0.0
 10
390.9553063870448
 20
8.133635858803774
 30
0.0
 10
390.8613253712483
 20
7.677425136815869
 30
0.0
 10
390.8098836529808
 20
7.427712327987087
 30
0.0
 11
388.9891946225779
 21
7.246042742781263
 31
0.0
 11
389.4125452496648
 21
8.180225752208741
 31
0.0
 11
390.3173260063135
 21
8.343027075116012
 31
0.0
 11
390.8052073284483
 21
8.091480796707216
 31
0.0
 11
390.8098836529808
 21
7.427712327987087
 31
0.0
  0
SPLINE
  5
16347
330
162DB
100
AcDbEntity
  8
0
370
     5
100
AcDbSpline
210
0.0
220
0.0
230
1.0
 70
     8
 71
     3
 72
    11
 73
     7
 74
     5
 42
0.0000000001
 43
0.0000000001
 44
0.0000000001
 40
0.0
 40
0.0
 40
0.0
 40
0.0
 40
0.2382164435737567
 40
0.5421434355608735
 40
0.732016912811592
 40
1.018337154454287
 40
1.018337154454287
 40
1.018337154454287
 40
1.018337154454287
 10
389.7086672624808
 20
7.534498109885504
 30
0.0
 10
389.7278583886964
 20
7.611142946000838
 30
0.0
 10
389.7715343958717
 20
7.785574627316329
 30
0.0
 10
389.9817889405037
 20
7.984232995272938
 30
0.0
 10
390.2858723729473
 20
7.873360579809109
 30
0.0
 10
390.2349989010925
 20
7.691853358019772
 30
0.0
 10
390.2044102894062
 20
7.582718798825283
 30
0.0
 11
389.7086672624808
 21
7.534498109885504
 31
0.0
 11
389.7878725787737
 21
7.759161395403779
 31
0.0
 11
390.0337339852006
 21
7.93783368001479
 31
0.0
 11
390.2106796974851
 21
7.868970393225509
 31
0.0
 11
390.2044102894062
 21
7.582718798825283
 31
0.0
  0
SPLINE
  5
16348
330
162DB
100
AcDbEntity
  8
0
370
     5
100
AcDbSpline
210
0.0
220
0.0
230
1.0
 70
     8
 71
     3
 72
    13
 73
     9
 74
     7
 42
0.0000000001
 43
0.0000000001
 44
0.0000000001
 40
0.0
 40
0.0
 40
0.0
 40
0.0
 40
1.164343723621714
 40
1.736226098691481
 40
2.164005493749148
 40
2.605032503069412
 40
3.226180425109826
 40
3.367692169857771
 40
3.367692169857771
 40
3.367692169857771
 40
3.367692169857771
 10
393.1485619070606
 20
8.372680225290281
 30
0.0
 10
392.7808458952016
 20
8.226448676668045
 30
0.0
 10
392.232521441053
 20
8.008393624693987
 30
0.0
 10
391.7547957009214
 20
7.442046297094518
 30
0.0
 10
391.6504713353846
 20
6.931323204021696
 30
0.0
 10
391.9637839490754
 20
6.505590533178537
 30
0.0
 10
392.2964385014608
 20
6.262516578206296
 30
0.0
 10
392.5428255923917
 20
6.197284127375611
 30
0.0
 10
392.588542795804
 20
6.185180225290281
 30
0.0
 11
393.1485619070606
 21
8.372680225290281
 31
0.0
 11
392.1196348410274
 21
7.827698207677215
 31
0.0
 11
391.7715167902711
 21
7.373976626029346
 31
0.0
 11
391.7109744526723
 21
6.950503089437063
 31
0.0
 11
391.9380079926254
 21
6.572401787288654
 31
0.0
 11
392.4526174101306
 21
6.224548530195832
 31
0.0
 11
392.588542795804
 21
6.185180225290281
 31
0.0
  0
SPLINE
  5
16349
330
162DB
100
AcDbEntity
  8
0
370
     5
100
AcDbSpline
210
0.0
220
0.0
230
1.0
 70
     8
 71
     3
 72
    12
 73
     8
 74
     0
 42
0.0000000001
 43
0.0000000001
 40
1.645102655429758
 40
1.645102655429758
 40
1.645102655429758
 40
1.645102655429758
 40
13.15658532728309
 40
23.22113165979271
 40
31.54398940181197
 40
41.83223506517255
 40
51.3822508792191
 40
51.3822508792191
 40
51.3822508792191
 40
51.3822508792191
 10
392.3260983263972
 20
8.372680225290281
 30
0.0
 10
392.1085026908344
 20
8.269052023095042
 30
0.0
 10
391.7052035565058
 20
8.067608942433402
 30
0.0
 10
391.2406674781611
 20
7.638649196905802
 30
0.0
 10
390.9816034838084
 20
7.061745960847325
 30
0.0
 10
391.2461121847842
 20
6.442907902647341
 30
0.0
 10
391.6301975279293
 20
6.268931422070814
 30
0.0
 10
391.8150938256798
 20
6.185180225290281
 30
0.0
  0
ELLIPSE
  5
1634A
330
162DB
100
AcDbEntity
  8
0
370
     5
100
AcDbEllipse
 10
393.3428868990501
 20
6.531431427661409
 30
0.0
 11
-0.2474730933309162
 21
-0.2820067641118944
 31
0.0
210
0.0
220
0.0
230
1.0
 40
0.8122638817359604
 41
0.0
 42
6.283185307179586
  0
LINE
  5
1634B
330
162DB
100
AcDbEntity
  8
0
370
     5
100
AcDbLine
 10
388.7176045497958
 20
6.185180225290288
 30
0.0
 11
389.3628298867173
 21
6.185180225290281
 31
0.0
  0
LINE
  5
1634C
330
162DB
100
AcDbEntity
  8
0
370
     5
100
AcDbLine
 10
389.8466282048815
 20
6.185180225290281
 30
0.0
 11
390.4917845792163
 21
6.185180225290281
 31
0.0
  0
LINE
  5
1634D
330
162DB
100
AcDbEntity
  8
0
370
     5
100
AcDbLine
 10
383.6782493002714
 20
6.185180225290281
 30
0.0
 11
384.5240881151667
 21
6.185180225290281
 31
0.0
  0
MTEXT
  5
1634E
330
162DB
100
AcDbEntity
  8
moji
370
     5
100
AcDbMText
 10
73.88464915034183
 20
3.116223828112373
 30
0.0
 40
2.5
 41
50.0
 71
     5
 72
     5
  1
{\C7;ダディロングレッグス}
 73
     1
 44
1.0
  0
MTEXT
  5
1634F
330
162DB
100
AcDbEntity
  8
moji
370
     5
100
AcDbMText
 10
98.88464915034184
 20
3.116223828112373
 30
0.0
 40
2.5
 41
112.8133999999999
 71
     4
 72
     5
  1
　基盤：デルリンプレスチック　ロッド：316ステンレススチール(12本）
 73
     1
 44
1.0
  0
MTEXT
  5
16350
330
162DB
100
AcDbEntity
  8
moji
370
     5
100
AcDbMText
 10
223.8846491503418
 20
8.115610315382367
 30
0.0
 40
2.5
 41
50.0
 71
     5
 72
     5
  1
{\C7;サ　イ　ズ}
 73
     1
 44
1.0
  0
MTEXT
  5
16351
330
162DB
100
AcDbEntity
  8
moji
370
     5
100
AcDbMText
 10
223.8846491503418
 20
3.116530584477377
 30
0.0
 40
2.5
 41
50.0
 71
     5
 72
     5
  1
大：D=2440
 73
     1
 44
1.0
  0
MTEXT
  5
16352
330
162DB
100
AcDbEntity
  8
moji
370
     5
100
AcDbMText
 10
323.8846491503418
 20
8.11591707174737
 30
0.0
 40
2.5
 41
50.0
 71
     5
 72
     5
  1
尺　　　　度
 73
     1
 44
1.0
  0
MTEXT
  5
16353
330
162DB
100
AcDbEntity
  8
moji
370
     5
100
AcDbMText
 10
323.8846491503418
 20
3.127718861942816
 30
0.0
 40
2.5
 41
50.0
 71
     5
 72
     5
  1
1/8
 73
     1
 44
1.0
  0
LINE
  5
16354
330
162DB
100
AcDbEntity
  8
sen1
370
     5
100
AcDbLine
 10
13.94813084789166
 20
10.61561031538235
 30
0.0
 11
407.9587665877503
 21
10.61561031538235
 31
0.0
  0
LINE
  5
16355
330
162DB
100
AcDbEntity
  8
sen1
370
     5
100
AcDbLine
 10
13.94813084789166
 20
5.615610315382355
 30
0.0
 11
348.8846491503418
 21
5.615610315382355
 31
0.0
  0
MTEXT
  5
16356
330
162DB
100
AcDbEntity
  8
moji
370
     5
100
AcDbMText
 10
31.43828351699699
 20
7.799191142735026
 30
0.0
 40
2.5
 41
35.0000176446858
 71
     5
 72
     5
  1
図面番号
 73
     1
 44
1.0
  0
LINE
  5
16357
330
162DB
100
AcDbEntity
  8
sen1
370
     5
100
AcDbLine
 10
48.88464915034183
 20
10.61561031538235
 30
0.0
 11
48.88464915034183
 21
0.6168373408423804
 31
0.0
  0
LINE
  5
16358
330
162DB
100
AcDbEntity
  8
sen1
370
     5
100
AcDbLine
 10
98.88464915034184
 20
10.61561031538235
 30
0.0
 11
98.88464915034184
 21
0.6168373408423804
 31
0.0
  0
LINE
  5
16359
330
162DB
100
AcDbEntity
  8
sen1
370
     5
100
AcDbLine
 10
298.8846491503418
 20
10.61561031538235
 30
0.0
 11
298.8846491503418
 21
0.6168373408423804
 31
0.0
  0
MTEXT
  5
1635A
330
162DB
100
AcDbEntity
  8
sen1
  6
HIDDEN
100
AcDbMText
 10
90.38764522057453
 20
4.256460715428261
 30
0.0
 40
1.5
 41
3.1648
 71
     1
 72
     5
  1
R
 73
     1
 44
1.0
  0
CIRCLE
  5
1635B
330
162DB
100
AcDbEntity
  8
moji
100
AcDbCircle
 10
90.82719718523515
 20
3.597470254202107
 30
0.0
 40
1.317981568531308
  0
ENDBLK
  5
1635D
330
162DB
100
AcDbEntity
  8
0
100
AcDbBlockEnd
  0
ENDSEC
  0
SECTION
  2
ENTITIES
  0
SPLINE
  5
1074C
330
1F
100
AcDbEntity
  8
sen1
 62
     0
100
AcDbSpline
210
0.0
220
0.0
230
1.0
 70
     8
 71
     3
 72
     9
 73
     5
 74
     0
 42
0.0000000001
 43
0.0000000001
 40
0.0
 40
0.0
 40
0.0
 40
0.0
 40
245.2264259821901
 40
399.9600753192478
 40
399.9600753192478
 40
399.9600753192478
 40
399.9600753192478
 10
4414.466209434629
 20
18284.35361583975
 30
0.0
 10
4489.730630642774
 20
18371.64016592602
 30
0.0
 10
4612.485604763939
 20
18514.00302509601
 30
0.0
 10
4650.667165923349
 20
18358.80749243662
 30
0.0
 10
4664.242505201122
 20
18294.55840037544
 30
0.0
  0
SPLINE
  5
1074D
330
1F
100
AcDbEntity
  8
sen1
 62
     0
100
AcDbSpline
210
0.0
220
0.0
230
1.0
 70
     8
 71
     3
 72
     8
 73
     4
 74
     0
 42
0.0000000001
 43
0.0000000001
 40
0.0
 40
0.0
 40
0.0
 40
0.0
 40
29.94389103885673
 40
29.94389103885673
 40
29.94389103885673
 40
29.94389103885673
 10
4424.714920740594
 20
18284.35361583975
 30
0.0
 10
4431.47554745055
 20
18294.1731082678
 30
0.0
 10
4438.236174160507
 20
18305.25585282814
 30
0.0
 10
4445.237430709926
 20
18316.8129268237
 30
0.0
  0
DIMENSION
  5
1074E
330
1F
100
AcDbEntity
  8
sen1
 62
     0
100
AcDbDimension
  2
*D8
 10
3790.466209434625
 20
18707.16986524773
 30
0.0
 11
4400.466209434625
 21
18714.16986524773
 31
0.0
 70
    32
 71
     5
 42
1220.0
  3
ISO-25
100
AcDbAlignedDimension
 13
5010.466209434626
 23
18647.81339019617
 33
0.0
 14
3790.466209434625
 24
18647.81339019617
 34
0.0
100
AcDbRotatedDimension
1001
ACAD
1000
DSTYLE
1002
{
1070
    41
1040
1.0
1070
    42
1040
5.0
1070
    43
1040
5.0
1070
    44
1040
5.0
1070
    46
1040
1.0
1070
    77
1070
     2
1070
   140
1040
10.0
1070
   147
1040
2.0
1070
   174
1070
     1
1070
   176
1070
     5
1070
   177
1070
     5
1070
   271
1070
     4
1070
   272
1070
     4
1070
   276
1070
     2
1070
   341
1005
1877
1070
   342
1005
1877
1002
}
  0
LINE
  5
10764
330
1F
100
AcDbEntity
  8
center
 62
     0
370
    13
100
AcDbLine
 10
4400.466209434625
 20
18647.81339019617
 30
0.0
 11
4400.466209434628
 21
17957.29428464329
 31
0.0
  0
DIMENSION
  5
10765
330
1F
100
AcDbEntity
  8
moji
 62
     0
100
AcDbDimension
  2
*D9
 10
4348.048944720805
 20
18125.63597121272
 30
0.0
 11
4353.145454175852
 21
18134.46338453231
 31
0.0
 70
   161
 71
     5
 42
45.00000000840009
  3
ISO-25
100
AcDbAlignedDimension
 13
4400.466209434628
 23
18147.33437356107
 33
0.0
 14
4377.966209434625
 24
18108.36323038107
 34
0.0
1001
ACAD
1000
DSTYLE
1002
{
1070
    41
1040
1.0
1070
    42
1040
5.0
1070
    43
1040
5.0
1070
    44
1040
5.0
1070
    46
1040
1.0
1070
   140
1040
10.0
1070
   147
1040
2.0
1070
   174
1070
     1
1070
   176
1070
     5
1070
   177
1070
     5
1070
   271
1070
     4
1070
   272
1070
     4
1070
   276
1070
     2
1070
   341
1005
1877
1070
   342
1005
1877
1002
}
  0
DIMENSION
  5
10766
330
1F
100
AcDbEntity
  8
moji
 62
     0
100
AcDbDimension
  2
*D10
 10
4362.46620943463
 20
18036.92978399923
 30
0.0
 11
4400.466209434629
 21
18036.92978399923
 31
0.0
 70
   160
 71
     5
 42
76.0
  3
ISO-25
100
AcDbAlignedDimension
 13
4438.466209434629
 23
18174.35361583975
 33
0.0
 14
4362.46620943463
 24
18174.35361583975
 34
0.0
100
AcDbRotatedDimension
1001
ACAD
1000
DSTYLE
1002
{
1070
    41
1040
1.0
1070
    42
1040
5.0
1070
    43
1040
5.0
1070
    44
1040
5.0
1070
    46
1040
1.0
1070
   140
1040
10.0
1070
   147
1040
2.0
1070
   174
1070
     1
1070
   176
1070
     5
1070
   177
1070
     5
1070
   271
1070
     4
1070
   272
1070
     4
1070
   276
1070
     2
1070
   341
1005
1877
1070
   342
1005
1877
1002
}
  0
CIRCLE
  5
10767
330
1F
100
AcDbEntity
  8
moji
 62
     0
100
AcDbCircle
 10
4400.466209434625
 20
18121.35361144108
 30
0.0
 40
38.0
  0
DIMENSION
  5
1076A
330
1F
100
AcDbEntity
  8
moji
 62
     0
100
AcDbDimension
  2
*D11
 10
4422.966209434625
 20
18060.81616814946
 30
0.0
 11
4400.466209434625
 21
18060.81616814946
 31
0.0
 70
   160
 71
     5
 42
45.0
  3
ISO-25
100
AcDbAlignedDimension
 13
4377.966209434625
 23
18108.36323038107
 33
0.0
 14
4422.966209434625
 24
18108.36323038107
 34
0.0
100
AcDbRotatedDimension
1001
ACAD
1000
DSTYLE
1002
{
1070
    41
1040
1.0
1070
    42
1040
5.0
1070
    43
1040
5.0
1070
    44
1040
5.0
1070
    46
1040
1.0
1070
   140
1040
10.0
1070
   147
1040
2.0
1070
   174
1070
     1
1070
   176
1070
     5
1070
   177
1070
     5
1070
   271
1070
     4
1070
   272
1070
     4
1070
   276
1070
     2
1070
   341
1005
1877
1070
   342
1005
1877
1002
}
  0
CIRCLE
  5
1076C
330
1F
100
AcDbEntity
  8
moji
 62
     0
100
AcDbCircle
 10
4400.466209434625
 20
18121.35361144108
 30
0.0
 40
11.1
  0
CIRCLE
  5
1076D
330
1F
100
AcDbEntity
  8
moji
 62
     0
100
AcDbCircle
 10
4422.966209434625
 20
18108.36323038107
 30
0.0
 40
6.5
  0
CIRCLE
  5
1076E
330
1F
100
AcDbEntity
  8
moji
 62
     0
100
AcDbCircle
 10
4377.966209434625
 20
18108.36323038107
 30
0.0
 40
6.5
  0
CIRCLE
  5
1076F
330
1F
100
AcDbEntity
  8
moji
 62
     0
100
AcDbCircle
 10
4422.966209434625
 20
18108.36323038107
 30
0.0
 40
5.0
  0
CIRCLE
  5
10770
330
1F
100
AcDbEntity
  8
moji
 62
     0
100
AcDbCircle
 10
4377.966209434625
 20
18108.36323038107
 30
0.0
 40
5.0
  0
CIRCLE
  5
10771
330
1F
100
AcDbEntity
  8
moji
 62
     0
100
AcDbCircle
 10
4400.466209434625
 20
18121.35361144108
 30
0.0
 40
2.5
  0
ARC
  5
10777
330
1F
100
AcDbEntity
  8
sen1
 62
     0
100
AcDbCircle
 10
4707.523947792829
 20
18099.80060085359
 30
0.0
 40
334.6203495942972
100
AcDbArc
 50
35.61524917067065
 51
104.955146107758
  0
LINE
  5
10778
330
1F
100
AcDbEntity
  8
sen1
 62
     0
100
AcDbLine
 10
4376.217498128663
 20
18284.35361583975
 30
0.0
 11
4384.246285218438
 21
18284.35361583975
 31
0.0
  0
LINE
  5
10779
330
1F
100
AcDbEntity
  8
sen1
 62
     0
100
AcDbLine
 10
4386.466209434622
 20
18284.35361583975
 30
0.0
 11
4395.949423768018
 21
18284.35361583975
 31
0.0
  0
ARC
  5
1077A
330
1F
100
AcDbEntity
  8
sen1
 62
     0
100
AcDbCircle
 10
4400.466209434625
 20
18437.34473744381
 30
0.0
 40
1.0
100
AcDbArc
 50
0.0
 51
180.0
  0
ARC
  5
1077B
330
1F
100
AcDbEntity
  8
sen1
 62
     0
100
AcDbCircle
 10
4396.974268685439
 20
18282.87683158771
 30
0.0
 40
1.5
100
AcDbArc
 50
158.1990833194238
 51
183.8889675069294
  0
ARC
  5
1077C
330
1F
100
AcDbEntity
  8
sen1
 62
     0
100
AcDbCircle
 10
4403.958150183814
 20
18282.87683158771
 30
0.0
 40
1.5
100
AcDbArc
 50
356.1110324930705
 51
21.80091668057611
  0
LINE
  5
1077D
330
1F
100
AcDbEntity
  8
sen1
 62
     0
100
AcDbLine
 10
4399.466209434626
 20
18437.34473744381
 30
0.0
 11
4399.466209434626
 21
18293.14579931021
 31
0.0
  0
LINE
  5
1077E
330
1F
100
AcDbEntity
  8
sen1
 62
     0
100
AcDbLine
 10
4401.466209434626
 20
18437.34473744381
 30
0.0
 11
4401.46620943463
 21
18293.14579931022
 31
0.0
  0
LINE
  5
1077F
330
1F
100
AcDbEntity
  8
sen1
 62
     0
100
AcDbLine
 10
4401.46620943463
 20
18293.14579931022
 30
0.0
 11
4405.350870011635
 21
18283.43390562336
 31
0.0
  0
LINE
  5
10780
330
1F
100
AcDbEntity
  8
sen1
 62
     0
100
AcDbLine
 10
4399.466209434627
 20
18293.14579931022
 30
0.0
 11
4395.581548857618
 21
18283.43390562336
 31
0.0
  0
ARC
  5
10781
330
1F
100
AcDbEntity
  8
sen1
 62
     0
100
AcDbCircle
 10
4400.466209434626
 20
18283.11421272463
 30
0.0
 40
5.0
100
AcDbArc
 50
183.8889675069294
 51
356.1110324930705
  0
LINE
  5
10782
330
1F
100
AcDbEntity
  8
sen1
 62
     0
100
AcDbLine
 10
4395.498580248051
 20
18283.14579931022
 30
0.0
 11
4405.433838621206
 21
18283.14579931022
 31
0.0
  0
LINE
  5
10783
330
1F
100
AcDbEntity
  8
sen1
 62
     0
100
AcDbLine
 10
4404.982995101236
 20
18284.35361583975
 30
0.0
 11
4414.466209434629
 21
18284.35361583975
 31
0.0
  0
LINE
  5
10785
330
1F
100
AcDbEntity
  8
sen1
 62
     0
100
AcDbLine
 10
4402.183064941801
 20
18291.35361583975
 30
0.0
 11
4404.66620943463
 21
18291.35361583975
 31
0.0
  0
LINE
  5
10786
330
1F
100
AcDbEntity
  8
sen1
 62
     0
100
AcDbLine
 10
4401.983069930413
 20
18291.85361583975
 30
0.0
 11
4408.966209434626
 21
18291.85361583975
 31
0.0
  0
LINE
  5
10787
330
1F
100
AcDbEntity
  8
sen1
 62
     0
100
AcDbLine
 10
4399.050889357186
 20
18292.10747321759
 30
0.0
 11
4397.591209434629
 21
18291.85361583975
 31
0.0
  0
LINE
  5
10788
330
1F
100
AcDbEntity
  8
sen1
 62
     0
100
AcDbLine
 10
4401.466209434626
 20
18293.35361583975
 30
0.0
 11
4406.21620943463
 21
18293.35361583975
 31
0.0
  0
LINE
  5
10789
330
1F
100
AcDbEntity
  8
sen1
 62
     0
100
AcDbLine
 10
4399.466209434626
 20
18294.17970279627
 30
0.0
 11
4394.716209434629
 21
18293.35361583975
 31
0.0
  0
LINE
  5
1078A
330
1F
100
AcDbEntity
  8
sen1
 62
     0
100
AcDbLine
 10
4401.466209434626
 20
18295.35361583975
 30
0.0
 11
4406.21620943463
 21
18295.35361583975
 31
0.0
  0
LINE
  5
1078B
330
1F
100
AcDbEntity
  8
sen1
 62
     0
100
AcDbLine
 10
4399.466209434626
 20
18296.17970279627
 30
0.0
 11
4394.716209434629
 21
18295.35361583975
 31
0.0
  0
LINE
  5
1078C
330
1F
100
AcDbEntity
  8
sen1
 62
     0
100
AcDbLine
 10
4401.466209434626
 20
18297.35361583975
 30
0.0
 11
4406.21620943463
 21
18297.35361583975
 31
0.0
  0
LINE
  5
1078D
330
1F
100
AcDbEntity
  8
sen1
 62
     0
100
AcDbLine
 10
4399.466209434626
 20
18298.17970279627
 30
0.0
 11
4394.716209434625
 21
18297.35361583975
 31
0.0
  0
LINE
  5
1078E
330
1F
100
AcDbEntity
  8
sen1
 62
     0
100
AcDbLine
 10
4401.466209434626
 20
18299.35361583975
 30
0.0
 11
4406.21620943463
 21
18299.35361583975
 31
0.0
  0
LINE
  5
1078F
330
1F
100
AcDbEntity
  8
sen1
 62
     0
100
AcDbLine
 10
4401.466209434626
 20
18304.35361583975
 30
0.0
 11
4401.716209434626
 21
18304.35361583975
 31
0.0
  0
LINE
  5
10790
330
1F
100
AcDbEntity
  8
sen1
 62
     0
100
AcDbLine
 10
4399.466209434627
 20
18339.41031446439
 30
0.0
 11
4399.466209434627
 21
18293.14579931022
 31
0.0
  0
LINE
  5
10791
330
1F
100
AcDbEntity
  8
sen1
 62
     0
100
AcDbLine
 10
4401.466209434627
 20
18339.41031446439
 30
0.0
 11
4401.466209434627
 21
18293.14579931022
 31
0.0
  0
LINE
  5
10792
330
1F
100
AcDbEntity
  8
sen1
 62
     0
100
AcDbLine
 10
4399.466209434627
 20
18293.14579931022
 30
0.0
 11
4401.46620943463
 21
18293.14579931022
 31
0.0
  0
ARC
  5
10793
330
1F
100
AcDbEntity
  8
sen1
 62
     0
100
AcDbCircle
 10
4385.356247326532
 20
18283.44631583975
 30
0.0
 40
1.109962108092076
100
AcDbArc
 50
180.0
 51
0.0
  0
LINE
  5
10794
330
1F
100
AcDbEntity
  8
sen1
 62
     0
100
AcDbLine
 10
4386.466209434622
 20
18284.35361583975
 30
0.0
 11
4386.466209434622
 21
18283.44631583975
 31
0.0
  0
LINE
  5
10795
330
1F
100
AcDbEntity
  8
sen1
 62
     0
100
AcDbLine
 10
4384.246285218438
 20
18284.35361583975
 30
0.0
 11
4384.246285218438
 21
18283.44631583975
 31
0.0
  0
LINE
  5
10796
330
1F
100
AcDbEntity
  8
sen1
 62
     0
100
AcDbLine
 10
4376.21749812866
 20
18284.35361583975
 30
0.0
 11
4376.21749812866
 21
18283.44631583975
 31
0.0
  0
LINE
  5
10797
330
1F
100
AcDbEntity
  8
sen1
 62
     0
100
AcDbLine
 10
4374.032129461634
 20
18284.35361583975
 30
0.0
 11
4374.032129461634
 21
18283.44631583975
 31
0.0
  0
ARC
  5
10798
330
1F
100
AcDbEntity
  8
sen1
 62
     0
100
AcDbCircle
 10
4375.124813795146
 20
18283.44631583975
 30
0.0
 40
1.092684333513716
100
AcDbArc
 50
180.0
 51
0.0
  0
ARC
  5
10799
330
1F
100
AcDbEntity
  8
sen1
 62
     0
100
AcDbCircle
 10
4372.488175951811
 20
18283.85361583975
 30
0.0
 40
1.5
100
AcDbArc
 50
211.4496395081922
 51
270.0
  0
LINE
  5
1079B
330
1F
100
AcDbEntity
  8
sen1
 62
     0
100
AcDbLine
 10
4416.686133650813
 20
18284.35361583975
 30
0.0
 11
4424.714920740591
 21
18284.35361583975
 31
0.0
  0
LINE
  5
1079C
330
1F
100
AcDbEntity
  8
sen1
 62
     0
100
AcDbLine
 10
4426.90028940762
 20
18284.35361583975
 30
0.0
 11
4428.466209434626
 21
18284.35361583975
 31
0.0
  0
ARC
  5
1079D
330
1F
100
AcDbEntity
  8
sen1
 62
     0
100
AcDbCircle
 10
4425.807605074106
 20
18283.44631583975
 30
0.0
 40
1.092684333513716
100
AcDbArc
 50
180.0
 51
0.0
  0
ARC
  5
1079E
330
1F
100
AcDbEntity
  8
sen1
 62
     0
100
AcDbCircle
 10
4415.576171542723
 20
18283.44631583975
 30
0.0
 40
1.109962108092076
100
AcDbArc
 50
180.0
 51
0.0
  0
ARC
  5
1079F
330
1F
100
AcDbEntity
  8
sen1
 62
     0
100
AcDbCircle
 10
4428.444242917443
 20
18283.85361583975
 30
0.0
 40
1.5
100
AcDbArc
 50
270.0
 51
328.5503604918077
  0
LINE
  5
107A0
330
1F
100
AcDbEntity
  8
sen1
 62
     0
100
AcDbLine
 10
4426.90028940762
 20
18284.35361583975
 30
0.0
 11
4426.90028940762
 21
18283.44631583975
 31
0.0
  0
LINE
  5
107A1
330
1F
100
AcDbEntity
  8
sen1
 62
     0
100
AcDbLine
 10
4424.714920740591
 20
18284.35361583975
 30
0.0
 11
4424.714920740591
 21
18283.44631583975
 31
0.0
  0
LINE
  5
107A2
330
1F
100
AcDbEntity
  8
sen1
 62
     0
100
AcDbLine
 10
4416.686133650813
 20
18284.35361583975
 30
0.0
 11
4416.686133650813
 21
18283.44631583975
 31
0.0
  0
LINE
  5
107A3
330
1F
100
AcDbEntity
  8
sen1
 62
     0
100
AcDbLine
 10
4414.466209434629
 20
18284.35361583975
 30
0.0
 11
4414.466209434629
 21
18283.44631583975
 31
0.0
  0
ARC
  5
107A4
330
1F
100
AcDbEntity
  8
sen1
 62
     0
100
AcDbCircle
 10
4401.716209434626
 20
18299.85361583975
 30
0.0
 40
4.5
100
AcDbArc
 50
0.0
 51
90.0
  0
ARC
  5
107A5
330
1F
100
AcDbEntity
  8
sen1
 62
     0
100
AcDbCircle
 10
4399.216209434629
 20
18299.85361583975
 30
0.0
 40
4.5
100
AcDbArc
 50
90.0
 51
180.0
  0
LINE
  5
107A6
330
1F
100
AcDbEntity
  8
sen1
 62
     0
100
AcDbLine
 10
4406.21620943463
 20
18293.35361583975
 30
0.0
 11
4401.697427128842
 21
18292.56774065614
 31
0.0
  0
LINE
  5
107A7
330
1F
100
AcDbEntity
  8
sen1
 62
     0
100
AcDbLine
 10
4406.21620943463
 20
18295.35361583975
 30
0.0
 11
4401.466209434626
 21
18294.52752888323
 31
0.0
  0
LINE
  5
107A8
330
1F
100
AcDbEntity
  8
sen1
 62
     0
100
AcDbLine
 10
4406.216209434625
 20
18297.35361583975
 30
0.0
 11
4401.466209434626
 21
18296.52752888323
 31
0.0
  0
LINE
  5
107A9
330
1F
100
AcDbEntity
  8
sen1
 62
     0
100
AcDbLine
 10
4406.21620943463
 20
18299.35361583975
 30
0.0
 11
4401.466209434626
 21
18298.52752888323
 31
0.0
  0
LINE
  5
107AA
330
1F
100
AcDbEntity
  8
sen1
 62
     0
100
AcDbLine
 10
4394.716209434629
 20
18293.35361583975
 30
0.0
 11
4399.466209434626
 21
18293.35361583975
 31
0.0
  0
LINE
  5
107AB
330
1F
100
AcDbEntity
  8
sen1
 62
     0
100
AcDbLine
 10
4394.716209434629
 20
18295.35361583975
 30
0.0
 11
4399.466209434626
 21
18295.35361583975
 31
0.0
  0
LINE
  5
107AC
330
1F
100
AcDbEntity
  8
sen1
 62
     0
100
AcDbLine
 10
4394.716209434629
 20
18297.35361583975
 30
0.0
 11
4399.466209434626
 21
18297.35361583975
 31
0.0
  0
ARC
  5
107AD
330
1F
100
AcDbEntity
  8
sen1
 62
     0
100
AcDbCircle
 10
4391.966209434626
 20
18285.35361583975
 30
0.0
 40
1.0
100
AcDbArc
 50
180.0
 51
270.0
  0
ARC
  5
107AE
330
1F
100
AcDbEntity
  8
sen1
 62
     0
100
AcDbCircle
 10
4408.966209434626
 20
18285.35361583975
 30
0.0
 40
1.0
100
AcDbArc
 50
270.0
 51
0.0
  0
ARC
  5
107AF
330
1F
100
AcDbEntity
  8
sen1
 62
     0
100
AcDbCircle
 10
4408.966209434626
 20
18290.85361583975
 30
0.0
 40
1.0
100
AcDbArc
 50
0.0
 51
90.0
  0
ARC
  5
107B0
330
1F
100
AcDbEntity
  8
sen1
 62
     0
100
AcDbCircle
 10
4391.966209434626
 20
18290.85361583975
 30
0.0
 40
1.0
100
AcDbArc
 50
90.0
 51
180.0
  0
LINE
  5
107B2
330
1F
100
AcDbEntity
  8
sen1
 62
     0
100
AcDbLine
 10
4407.166209434627
 20
18284.85361583975
 30
0.0
 11
4409.832234838411
 21
18284.85361583975
 31
0.0
  0
LINE
  5
107B3
330
1F
100
AcDbEntity
  8
sen1
 62
     0
100
AcDbLine
 10
4407.166209434627
 20
18291.35361583975
 30
0.0
 11
4409.832234838411
 21
18291.35361583975
 31
0.0
  0
LINE
  5
107B4
330
1F
100
AcDbEntity
  8
sen1
 62
     0
100
AcDbLine
 10
4396.266209434624
 20
18291.35361583975
 30
0.0
 11
4398.749353927455
 21
18291.35361583975
 31
0.0
  0
ARC
  5
107B5
330
1F
100
AcDbEntity
  8
sen1
 62
     0
100
AcDbCircle
 10
4407.166209434627
 20
18285.85361583975
 30
0.0
 40
1.0
100
AcDbArc
 50
180.0
 51
270.0
  0
ARC
  5
107B6
330
1F
100
AcDbEntity
  8
sen1
 62
     0
100
AcDbCircle
 10
4407.166209434627
 20
18290.35361583975
 30
0.0
 40
1.0
100
AcDbArc
 50
90.0
 51
180.0
  0
ARC
  5
107B7
330
1F
100
AcDbEntity
  8
sen1
 62
     0
100
AcDbCircle
 10
4404.66620943463
 20
18290.35361583975
 30
0.0
 40
1.0
100
AcDbArc
 50
0.0
 51
90.0
  0
ARC
  5
107B8
330
1F
100
AcDbEntity
  8
sen1
 62
     0
100
AcDbCircle
 10
4404.666209434626
 20
18285.85361583975
 30
0.0
 40
1.0
100
AcDbArc
 50
270.0
 51
0.0
  0
ARC
  5
107B9
330
1F
100
AcDbEntity
  8
sen1
 62
     0
100
AcDbCircle
 10
4396.266209434624
 20
18290.35361583975
 30
0.0
 40
1.0
100
AcDbArc
 50
90.0
 51
180.0
  0
ARC
  5
107BA
330
1F
100
AcDbEntity
  8
sen1
 62
     0
100
AcDbCircle
 10
4396.266209434624
 20
18285.85361583975
 30
0.0
 40
1.0
100
AcDbArc
 50
180.0
 51
270.0
  0
ARC
  5
107BB
330
1F
100
AcDbEntity
  8
sen1
 62
     0
100
AcDbCircle
 10
4393.766209434625
 20
18285.85361583975
 30
0.0
 40
1.0
100
AcDbArc
 50
270.0
 51
0.0
  0
ARC
  5
107BC
330
1F
100
AcDbEntity
  8
sen1
 62
     0
100
AcDbCircle
 10
4393.766209434625
 20
18290.35361583975
 30
0.0
 40
1.0
100
AcDbArc
 50
0.0
 51
90.0
  0
LINE
  5
107BD
330
1F
100
AcDbEntity
  8
sen1
 62
     0
100
AcDbLine
 10
4391.100184030843
 20
18284.85361583975
 30
0.0
 11
4393.766209434625
 21
18284.85361583975
 31
0.0
  0
LINE
  5
107BE
330
1F
100
AcDbEntity
  8
sen1
 62
     0
100
AcDbLine
 10
4391.100184030843
 20
18291.35361583975
 30
0.0
 11
4393.766209434625
 21
18291.35361583975
 31
0.0
  0
LINE
  5
107BF
330
1F
100
AcDbEntity
  8
sen1
 62
     0
100
AcDbLine
 10
4405.66620943463
 20
18290.35361583975
 30
0.0
 11
4405.666209434627
 21
18285.85361583975
 31
0.0
  0
LINE
  5
107C0
330
1F
100
AcDbEntity
  8
sen1
 62
     0
100
AcDbLine
 10
4395.266209434625
 20
18290.35361583975
 30
0.0
 11
4395.266209434625
 21
18285.85361583975
 31
0.0
  0
LINE
  5
107C1
330
1F
100
AcDbEntity
  8
sen1
 62
     0
100
AcDbLine
 10
4406.166209434626
 20
18290.35361583975
 30
0.0
 11
4406.166209434626
 21
18285.85361583975
 31
0.0
  0
LINE
  5
107C2
330
1F
100
AcDbEntity
  8
sen1
 62
     0
100
AcDbLine
 10
4394.766209434624
 20
18290.35361583975
 30
0.0
 11
4394.766209434624
 21
18285.85361583975
 31
0.0
  0
LINE
  5
107C3
330
1F
100
AcDbEntity
  8
sen1
 62
     0
100
AcDbLine
 10
4399.216209434629
 20
18304.35361583975
 30
0.0
 11
4399.466209434626
 21
18304.35361583975
 31
0.0
  0
LINE
  5
107C4
330
1F
100
AcDbEntity
  8
sen1
 62
     0
100
AcDbLine
 10
4394.716209434629
 20
18299.85361583975
 30
0.0
 11
4394.716209434629
 21
18291.85361583975
 31
0.0
  0
LINE
  5
107C5
330
1F
100
AcDbEntity
  8
sen1
 62
     0
100
AcDbLine
 10
4406.216209434625
 20
18299.85361583975
 30
0.0
 11
4406.21620943463
 21
18291.85361583975
 31
0.0
  0
LINE
  5
107C6
330
1F
100
AcDbEntity
  8
sen1
 62
     0
100
AcDbLine
 10
4394.716209434629
 20
18299.35361583975
 30
0.0
 11
4399.466209434626
 21
18299.35361583975
 31
0.0
  0
LINE
  5
107C7
330
1F
100
AcDbEntity
  8
sen1
 62
     0
100
AcDbLine
 10
4391.966209434626
 20
18291.85361583975
 30
0.0
 11
4398.949348938844
 21
18291.85361583975
 31
0.0
  0
LINE
  5
107C8
330
1F
100
AcDbEntity
  8
sen1
 62
     0
100
AcDbLine
 10
4390.966209434625
 20
18290.85361583975
 30
0.0
 11
4390.966209434625
 21
18285.35361583975
 31
0.0
  0
LINE
  5
107C9
330
1F
100
AcDbEntity
  8
sen1
 62
     0
100
AcDbLine
 10
4409.966209434625
 20
18290.85361583975
 30
0.0
 11
4409.966209434625
 21
18285.35361583975
 31
0.0
  0
LINE
  5
107CA
330
1F
100
AcDbEntity
  8
sen1
 62
     0
100
AcDbLine
 10
4386.117426755228
 20
18265.85361583975
 30
0.0
 11
4392.466209434629
 21
18259.85754330921
 31
0.0
  0
LINE
  5
107CB
330
1F
100
AcDbEntity
  8
sen1
 62
     0
100
AcDbLine
 10
4408.466209434625
 20
18259.85754330921
 30
0.0
 11
4414.814992114023
 21
18265.85361583975
 31
0.0
  0
LINE
  5
107CC
330
1F
100
AcDbEntity
  8
sen1
 62
     0
100
AcDbLine
 10
4399.966209434626
 20
18265.85361583975
 30
0.0
 11
4399.966209434626
 21
18248.85361583975
 31
0.0
  0
LINE
  5
107CD
330
1F
100
AcDbEntity
  8
sen1
 62
     0
100
AcDbLine
 10
4400.966209434626
 20
18265.85361583975
 30
0.0
 11
4400.966209434626
 21
18248.85361583975
 31
0.0
  0
LINE
  5
107CE
330
1F
100
AcDbEntity
  8
sen1
 62
     0
100
AcDbLine
 10
4408.466209434629
 20
18248.85361583975
 30
0.0
 11
4426.466209434625
 21
18265.85361583975
 31
0.0
  0
LINE
  5
107CF
330
1F
100
AcDbEntity
  8
sen1
 62
     0
100
AcDbLine
 10
4374.466209434626
 20
18265.85361583975
 30
0.0
 11
4392.466209434625
 21
18248.85361583975
 31
0.0
  0
LINE
  5
107D0
330
1F
100
AcDbEntity
  8
sen1
 62
     0
100
AcDbLine
 10
4392.466209434625
 20
18248.85361583975
 30
0.0
 11
4408.466209434629
 21
18248.85361583975
 31
0.0
  0
LINE
  5
107D1
330
1F
100
AcDbEntity
  8
sen1
 62
     0
100
AcDbLine
 10
4372.466209434626
 20
18282.35361583975
 30
0.0
 11
4395.524398796944
 21
18282.35361583975
 31
0.0
  0
LINE
  5
107D2
330
1F
100
AcDbEntity
  8
sen1
 62
     0
100
AcDbLine
 10
4372.466209434626
 20
18284.35361583975
 30
0.0
 11
4372.466209434626
 21
18265.85361583975
 31
0.0
  0
LINE
  5
107D3
330
1F
100
AcDbEntity
  8
sen1
 62
     0
100
AcDbLine
 10
4428.466209434626
 20
18284.35361583975
 30
0.0
 11
4428.466209434626
 21
18265.85361583975
 31
0.0
  0
LINE
  5
107D4
330
1F
100
AcDbEntity
  8
sen1
 62
     0
100
AcDbLine
 10
4392.466209434625
 20
18265.85361583975
 30
0.0
 11
4392.466209434629
 21
18246.85361583975
 31
0.0
  0
LINE
  5
107D5
330
1F
100
AcDbEntity
  8
sen1
 62
     0
100
AcDbLine
 10
4408.466209434625
 20
18265.85361583975
 30
0.0
 11
4408.466209434629
 21
18246.85361583975
 31
0.0
  0
LINE
  5
107D6
330
1F
100
AcDbEntity
  8
sen1
 62
     0
100
AcDbLine
 10
4397.966209434626
 20
18246.85361583975
 30
0.0
 11
4397.966209434626
 21
18238.85361583975
 31
0.0
  0
LINE
  5
107D7
330
1F
100
AcDbEntity
  8
sen1
 62
     0
100
AcDbLine
 10
4402.966209434626
 20
18246.85361583975
 30
0.0
 11
4402.966209434626
 21
18238.85361583975
 31
0.0
  0
LINE
  5
107D8
330
1F
100
AcDbEntity
  8
sen1
 62
     0
100
AcDbLine
 10
4372.466209434626
 20
18284.35361583975
 30
0.0
 11
4374.032129461634
 21
18284.35361583975
 31
0.0
  0
LINE
  5
107D9
330
1F
100
AcDbEntity
  8
sen1
 62
     0
100
AcDbLine
 10
4372.466209434629
 20
18265.85361583975
 30
0.0
 11
4428.466209434626
 21
18265.85361583975
 31
0.0
  0
LINE
  5
107DA
330
1F
100
AcDbEntity
  8
sen1
 62
     0
100
AcDbLine
 10
4392.466209434625
 20
18246.85361583975
 30
0.0
 11
4408.466209434629
 21
18246.85361583975
 31
0.0
  0
LINE
  5
107DB
330
1F
100
AcDbEntity
  8
sen1
 62
     0
100
AcDbLine
 10
4399.966209434629
 20
18203.85361583975
 30
0.0
 11
4399.966209434629
 21
18180.85361583975
 31
0.0
  0
LINE
  5
107DC
330
1F
100
AcDbEntity
  8
sen1
 62
     0
100
AcDbLine
 10
4400.966209434626
 20
18203.85361583975
 30
0.0
 11
4400.96620943463
 21
18180.85361583975
 31
0.0
  0
ARC
  5
107DD
330
1F
100
AcDbEntity
  8
sen1
 62
     0
100
AcDbCircle
 10
4421.566209434626
 20
18190.85361583975
 30
0.0
 40
10.0
100
AcDbArc
 50
180.0
 51
270.0
  0
ARC
  5
107DE
330
1F
100
AcDbEntity
  8
sen1
 62
     0
100
AcDbCircle
 10
4379.366209434625
 20
18190.85361583975
 30
0.0
 40
10.0
100
AcDbArc
 50
270.0
 51
0.0
  0
LINE
  5
107DF
330
1F
100
AcDbEntity
  8
sen1
 62
     0
100
AcDbLine
 10
4411.566209434628
 20
18203.85361583975
 30
0.0
 11
4425.316209434624
 21
18180.85361583975
 31
0.0
  0
LINE
  5
107E0
330
1F
100
AcDbEntity
  8
sen1
 62
     0
100
AcDbLine
 10
4389.366209434624
 20
18203.85361583975
 30
0.0
 11
4375.616209434627
 21
18180.85361583975
 31
0.0
  0
ARC
  5
107E1
330
1F
100
AcDbEntity
  8
sen1
 62
     0
100
AcDbCircle
 10
4410.066209434631
 20
18237.35361583975
 30
0.0
 40
1.5
100
AcDbArc
 50
0.0
 51
90.0
  0
ARC
  5
107E2
330
1F
100
AcDbEntity
  8
sen1
 62
     0
100
AcDbCircle
 10
4390.866209434624
 20
18237.35361583975
 30
0.0
 40
1.5
100
AcDbArc
 50
90.0
 51
180.0
  0
LINE
  5
107E3
330
1F
100
AcDbEntity
  8
sen1
 62
     0
100
AcDbLine
 10
4389.366209434624
 20
18237.35361583975
 30
0.0
 11
4389.366209434627
 21
18190.85361583975
 31
0.0
  0
LINE
  5
107E4
330
1F
100
AcDbEntity
  8
sen1
 62
     0
100
AcDbLine
 10
4411.566209434631
 20
18237.35361583975
 30
0.0
 11
4411.566209434628
 21
18190.85361583975
 31
0.0
  0
LINE
  5
107E5
330
1F
100
AcDbEntity
  8
sen1
 62
     0
100
AcDbLine
 10
4390.866209434624
 20
18238.85361583975
 30
0.0
 11
4410.066209434631
 21
18238.85361583975
 31
0.0
  0
LINE
  5
107E6
330
1F
100
AcDbEntity
  8
waku
 62
     0
100
AcDbLine
 10
4389.366209434624
 20
18236.35361583975
 30
0.0
 11
4411.566209434631
 21
18236.35361583975
 31
0.0
  0
ARC
  5
107E7
330
1F
100
AcDbEntity
  8
sen1
 62
     0
100
AcDbCircle
 10
4435.466209434627
 20
18177.85361583975
 30
0.0
 40
3.0
100
AcDbArc
 50
0.0
 51
90.0
  0
ARC
  5
107E8
330
1F
100
AcDbEntity
  8
sen1
 62
     0
100
AcDbCircle
 10
4365.466209434628
 20
18177.85361583975
 30
0.0
 40
3.0
100
AcDbArc
 50
90.0
 51
180.0
  0
LINE
  5
107E9
330
1F
100
AcDbEntity
  8
sen1
 62
     0
100
AcDbLine
 10
4362.46620943463
 20
18177.85361583975
 30
0.0
 11
4362.46620943463
 21
18174.35361583975
 31
0.0
  0
LINE
  5
107EA
330
1F
100
AcDbEntity
  8
sen1
 62
     0
100
AcDbLine
 10
4438.466209434629
 20
18177.85361583975
 30
0.0
 11
4438.466209434629
 21
18174.35361583975
 31
0.0
  0
LINE
  5
107EB
330
1F
100
AcDbEntity
  8
waku
 62
     0
100
AcDbLine
 10
4389.366209434624
 20
18203.85361583975
 30
0.0
 11
4411.566209434628
 21
18203.85361583975
 31
0.0
  0
LINE
  5
107EC
330
1F
100
AcDbEntity
  8
sen1
 62
     0
100
AcDbLine
 10
4365.466209434629
 20
18180.85361583975
 30
0.0
 11
4435.466209434629
 21
18180.85361583975
 31
0.0
  0
LINE
  5
107ED
330
1F
100
AcDbEntity
  8
sen1
 62
     0
100
AcDbLine
 10
4362.46620943463
 20
18174.35361583975
 30
0.0
 11
4438.466209434629
 21
18174.35361583975
 31
0.0
  0
CIRCLE
  5
107EE
330
1F
100
AcDbEntity
  8
moji
 62
     0
100
AcDbCircle
 10
4400.466209434625
 20
18147.33437356107
 30
0.0
 40
6.5
  0
CIRCLE
  5
107EF
330
1F
100
AcDbEntity
  8
moji
 62
     0
100
AcDbCircle
 10
4400.466209434625
 20
18147.33437356107
 30
0.0
 40
5.0
  0
LWPOLYLINE
  5
107F0
330
1F
100
AcDbEntity
  8
moji
 62
     0
100
AcDbPolyline
 90
        4
 70
     1
 43
0.0
 10
4400.466209434625
 20
18147.33437356107
 10
4400.466209434625
 20
18147.33437356107
 10
4400.466209434625
 20
18147.33437356107
 10
4400.466209434625
 20
18147.33437356107
  0
DIMENSION
  5
107F1
330
1F
100
AcDbEntity
  8
moji
 62
     0
100
AcDbDimension
  2
*D12
 10
4540.056641495359
 20
18174.35361583975
 30
0.0
 11
4547.056641495356
 21
18229.35361583975
 31
0.0
 70
    32
 71
     5
 42
110.0
  3
ISO-25
100
AcDbAlignedDimension
 13
4489.261425464992
 23
18284.35361583975
 33
0.0
 14
4494.261425464994
 24
18174.35361583975
 34
0.0
 50
90.0
100
AcDbRotatedDimension
1001
ACAD
1000
DSTYLE
1002
{
1070
    41
1040
1.0
1070
    42
1040
5.0
1070
    43
1040
5.0
1070
    44
1040
5.0
1070
    46
1040
1.0
1070
    77
1070
     2
1070
   140
1040
10.0
1070
   147
1040
2.0
1070
   174
1070
     1
1070
   176
1070
     5
1070
   177
1070
     5
1070
   271
1070
     4
1070
   272
1070
     4
1070
   276
1070
     2
1070
   341
1005
1877
1070
   342
1005
1877
1002
}
  0
LINE
  5
107F2
330
1F
100
AcDbEntity
  8
sen1
 62
     0
100
AcDbLine
 10
4769.768712865536
 20
18293.40880903233
 30
0.0
 11
4776.510041248564
 21
18279.98854762459
 31
0.0
  0
LINE
  5
107F3
330
1F
100
AcDbEntity
  8
sen1
 62
     0
100
AcDbLine
 10
4771.325925609215
 20
18294.66586789445
 30
0.0
 11
4783.387525824299
 21
18285.79373546913
 31
0.0
  0
ARC
  5
107F4
330
1F
100
AcDbEntity
  8
sen1
 62
     0
100
AcDbCircle
 10
4779.948783536435
 20
18282.89114154686
 30
0.0
 40
4.5
100
AcDbArc
 50
220.1672403694611
 51
40.16724036929011
  0
LINE
  5
107F5
330
1F
100
AcDbEntity
  8
sen1
 62
     0
100
AcDbLine
 10
4783.3875258243
 20
18285.79373546913
 30
0.0
 11
4776.510041248564
 21
18279.98854762459
 31
0.0
  0
LINE
  5
107F7
330
1F
100
AcDbEntity
  8
sen1
 62
     0
100
AcDbLine
 10
4664.24248807444
 20
18294.55843435372
 30
0.0
 11
4671.22996565391
 21
18280.69570889743
 31
0.0
  0
LINE
  5
107F8
330
1F
100
AcDbEntity
  8
sen1
 62
     0
100
AcDbLine
 10
4662.284888139486
 20
18294.14879732578
 30
0.0
 11
4661.441965979131
 21
18278.64752375772
 31
0.0
  0
ARC
  5
107F9
330
1F
100
AcDbEntity
  8
sen1
 62
     0
100
AcDbCircle
 10
4666.335965816525
 20
18279.67161632758
 30
0.0
 40
5.0
100
AcDbArc
 50
191.8188752382839
 51
11.81887523826183
  0
LINE
  5
107FA
330
1F
100
AcDbEntity
  8
sen1
 62
     0
100
AcDbLine
 10
4671.229965653913
 20
18280.69570889743
 30
0.0
 11
4661.441965979131
 21
18278.64752375772
 31
0.0
  0
LINE
  5
107FB
330
1F
100
AcDbEntity
  8
sen1
 62
     0
100
AcDbLine
 10
4664.24248807444
 20
18294.55843435372
 30
0.0
 11
4662.284888139486
 21
18294.14879732578
 31
0.0
  0
DIMENSION
  5
107FE
330
1F
100
AcDbEntity
  8
sen1
 62
     0
100
AcDbDimension
  2
*D13
 10
4400.466209434617
 20
18586.49264633264
 30
0.0
 11
4472.322899109698
 21
18597.94348540826
 31
0.0
 70
   163
  1
M-10
 71
     5
 42
5.000000000001818
  3
ISO-25
100
AcDbDiametricDimension
 15
4405.403907226889
 25
18587.27950115547
 35
0.0
 40
0.0
1001
ACAD
1000
DSTYLE
1002
{
1070
    41
1040
1.0
1070
    42
1040
5.0
1070
    43
1040
5.0
1070
    44
1040
5.0
1070
    46
1040
1.0
1070
    77
1070
     2
1070
   140
1040
10.0
1070
   147
1040
2.0
1070
   174
1070
     1
1070
   176
1070
     5
1070
   177
1070
     5
1070
   271
1070
     4
1070
   272
1070
     4
1070
   276
1070
     2
1070
   341
1005
1877
1070
   342
1005
1877
1002
}
  0
CIRCLE
  5
107FF
330
1F
100
AcDbEntity
  8
sen1
 62
     0
370
    13
100
AcDbCircle
 10
4400.466209434628
 20
18586.49264633263
 30
0.0
 40
5.75
  0
CIRCLE
  5
10800
330
1F
100
AcDbEntity
  8
sen1
 62
     0
370
    13
100
AcDbCircle
 10
4400.466209434628
 20
18586.49264633263
 30
0.0
 40
5.0
  0
DIMENSION
  5
10801
330
1F
100
AcDbEntity
  8
sen1
 62
     0
100
AcDbDimension
  2
*D14
 10
4372.466209434628
 20
18622.1530182644
 30
0.0
 11
4400.466209434625
 21
18622.1530182644
 31
0.0
 70
   160
 71
     5
 42
55.99999999999818
  3
ISO-25
100
AcDbAlignedDimension
 13
4428.466209434626
 23
18586.49264633263
 33
0.0
 14
4372.466209434628
 24
18586.49264633263
 34
0.0
100
AcDbRotatedDimension
1001
ACAD
1000
DSTYLE
1002
{
1070
    41
1040
1.0
1070
    42
1040
5.0
1070
    43
1040
5.0
1070
    44
1040
5.0
1070
    46
1040
1.0
1070
    77
1070
     2
1070
   140
1040
10.0
1070
   147
1040
2.0
1070
   174
1070
     1
1070
   176
1070
     5
1070
   177
1070
     5
1070
   271
1070
     4
1070
   272
1070
     4
1070
   276
1070
     2
1070
   341
1005
1877
1070
   342
1005
1877
1002
}
  0
LINE
  5
10802
330
1F
100
AcDbEntity
  8
sen1
 62
     0
370
    13
100
AcDbLine
 10
4399.966209434627
 20
18612.48783819575
 30
0.0
 11
4399.966209434627
 21
18595.26950189149
 31
0.0
  0
LINE
  5
10803
330
1F
100
AcDbEntity
  8
sen1
 62
     0
370
    13
100
AcDbLine
 10
4409.243064993485
 20
18586.99264633264
 30
0.0
 11
4426.466209434628
 21
18586.99264633264
 31
0.0
  0
LINE
  5
10804
330
1F
100
AcDbEntity
  8
sen1
 62
     0
370
    13
100
AcDbLine
 10
4399.966209434627
 20
18577.71579077378
 30
0.0
 11
4399.966209434627
 21
18560.49745446952
 31
0.0
  0
LINE
  5
10805
330
1F
100
AcDbEntity
  8
sen1
 62
     0
370
    13
100
AcDbLine
 10
4400.966209434627
 20
18577.71579077378
 30
0.0
 11
4400.966209434627
 21
18560.49745446952
 31
0.0
  0
LINE
  5
10806
330
1F
100
AcDbEntity
  8
sen1
 62
     0
370
    13
100
AcDbLine
 10
4409.243064993485
 20
18585.99264633264
 30
0.0
 11
4426.466209434628
 21
18585.99264633264
 31
0.0
  0
LINE
  5
10807
330
1F
100
AcDbEntity
  8
sen1
 62
     0
370
    13
100
AcDbLine
 10
4399.966209434627
 20
18612.48783819575
 30
0.0
 11
4399.966209434627
 21
18595.26950189149
 31
0.0
  0
LINE
  5
10808
330
1F
100
AcDbEntity
  8
sen1
 62
     0
370
    13
100
AcDbLine
 10
4400.966209434627
 20
18612.48783819575
 30
0.0
 11
4400.966209434627
 21
18595.26950189149
 31
0.0
  0
LINE
  5
10809
330
1F
100
AcDbEntity
  8
sen1
 62
     0
370
    13
100
AcDbLine
 10
4374.466209434627
 20
18585.99264633264
 30
0.0
 11
4391.68935387577
 21
18585.99264633264
 31
0.0
  0
LINE
  5
1080A
330
1F
100
AcDbEntity
  8
sen1
 62
     0
370
    13
100
AcDbLine
 10
4374.466209434627
 20
18586.99264633264
 30
0.0
 11
4391.68935387577
 21
18586.99264633264
 31
0.0
  0
CIRCLE
  5
1080B
330
1F
100
AcDbEntity
  8
sen1
 62
     0
370
    13
100
AcDbCircle
 10
4400.466209434628
 20
18586.49264633263
 30
0.0
 40
26.0
  0
LWPOLYLINE
  5
1080C
330
1F
100
AcDbEntity
  8
sen1
 62
     0
370
    13
100
AcDbPolyline
 90
       16
 70
     1
 43
0.0
 10
4396.59848378012
 20
18594.33016206327
 10
4392.628693703991
 20
18590.36037198714
 42
0.198912367379629
 10
4392.18935387577
 20
18589.29971181536
 10
4392.18935387577
 20
18583.68558084991
 42
0.198912367379629
 10
4392.628693703991
 20
18582.62492067813
 10
4396.598483780122
 20
18578.655130602
 42
0.1989123673796984
 10
4397.659143951903
 20
18578.21579077378
 10
4403.273274917352
 20
18578.21579077378
 42
0.1989123673797513
 10
4404.333935089133
 20
18578.655130602
 10
4408.303725165263
 20
18582.62492067813
 42
0.1989123673796176
 10
4408.743064993485
 20
18583.68558084991
 10
4408.743064993485
 20
18589.29971181536
 42
0.1989123673797149
 10
4408.303725165263
 20
18590.36037198714
 10
4404.333935089129
 20
18594.33016206327
 42
0.1989123673796878
 10
4403.27327491735
 20
18594.76950189149
 10
4397.659143951901
 20
18594.76950189149
 42
0.1989123673797501
  0
LWPOLYLINE
  5
1080D
330
1F
100
AcDbEntity
  8
sen1
 62
     0
370
    13
100
AcDbPolyline
 90
       16
 70
     1
 43
0.0
 10
4396.537823608345
 20
18594.97660867268
 10
4391.982247094584
 20
18590.42103215892
 42
0.19891236737964
 10
4391.68935387577
 20
18589.71392537773
 10
4391.68935387577
 20
18583.27136728754
 42
0.19891236737964
 10
4391.982247094584
 20
18582.56426050635
 10
4396.537823608343
 20
18578.00868399259
 42
0.1989123673797335
 10
4397.24493038953
 20
18577.71579077378
 10
4403.687488479725
 20
18577.71579077378
 42
0.1989123673796709
 10
4404.394595260912
 20
18578.00868399259
 10
4408.950171774671
 20
18582.56426050635
 42
0.19891236737964
 10
4409.243064993485
 20
18583.27136728754
 10
4409.243064993485
 20
18589.71392537773
 42
0.1989123673796428
 10
4408.950171774671
 20
18590.42103215892
 10
4404.394595260909
 20
18594.97660867268
 42
0.1989123673796767
 10
4403.687488479723
 20
18595.26950189149
 10
4397.244930389532
 20
18595.26950189149
 42
0.1989123673796976
  0
CIRCLE
  5
1080E
330
1F
100
AcDbEntity
  8
sen1
 62
     0
370
    13
100
AcDbCircle
 10
4400.466209434628
 20
18586.49264633263
 30
0.0
 40
28.0
  0
ARC
  5
1080F
330
1F
100
AcDbEntity
  8
sen1
 62
     0
100
AcDbCircle
 10
4986.83595421053
 20
18281.85792809111
 30
0.0
 40
4.5
100
AcDbArc
 50
213.7017940793417
 51
33.70179407929542
  0
LINE
  5
10810
330
1F
100
AcDbEntity
  8
sen1
 62
     0
100
AcDbLine
 10
4990.579669577015
 20
18284.35484524127
 30
0.0
 11
4983.092238844052
 21
18279.36101094094
 31
0.0
  0
LINE
  5
10812
330
1F
100
AcDbEntity
  8
sen1
 62
     0
100
AcDbLine
 10
4979.552156007999
 20
18294.66319936304
 30
0.0
 11
4990.579669577013
 21
18284.35484524127
 31
0.0
  0
LINE
  5
10813
330
1F
100
AcDbEntity
  8
sen1
 62
     0
100
AcDbLine
 10
4977.920145585979
 20
18293.49413754509
 30
0.0
 11
4983.092238844052
 21
18279.36101094094
 31
0.0
  0
SPLINE
  5
1089C
330
1F
100
AcDbEntity
  8
sen1
 62
     0
100
AcDbSpline
210
0.0
220
0.0
230
1.0
 70
     8
 71
     3
 72
    36
 73
    32
 74
     0
 42
0.0000000001
 43
0.0000000001
 40
0.0
 40
0.0
 40
0.0
 40
0.0
 40
24.96846944387092
 40
24.96846944387092
 40
74.90540833161276
 40
74.90540833161276
 40
116.7513562400474
 40
116.7513562400474
 40
158.5973041484821
 40
158.5973041484821
 40
185.4939342058551
 40
185.4939342058551
 40
207.1981008976411
 40
207.1981008976411
 40
225.168806480252
 40
225.168806480252
 40
243.139512062863
 40
243.139512062863
 40
253.4083886217747
 40
253.4083886217747
 40
263.6772651806866
 40
263.6772651806866
 40
289.3509618986179
 40
289.3509618986179
 40
315.0246586165492
 40
315.0246586165492
 40
340.6983553344805
 40
340.6983553344805
 40
393.852731141793
 40
393.852731141793
 40
399.9569838376391
 40
399.9569838376391
 40
399.9569838376391
 40
399.9569838376391
 10
4416.686133650813
 20
18284.35361583975
 30
0.0
 10
4423.644154501917
 20
18291.93490724628
 30
0.0
 10
4431.305535207996
 20
18300.82004435683
 30
0.0
 10
4454.182894476601
 20
18327.11431187264
 30
0.0
 10
4469.292603840401
 20
18344.16258059969
 30
0.0
 10
4496.299227686615
 20
18372.8694949567
 30
0.0
 10
4508.320449558628
 20
18384.9538263085
 30
0.0
 10
4531.44073681966
 20
18405.99291091009
 30
0.0
 10
4542.541883425779
 20
18414.94687591245
 30
0.0
 10
4559.70404082917
 20
18426.16346397509
 30
0.0
 10
4566.148182685632
 20
18429.67282663406
 30
0.0
 10
4577.184471732336
 20
18434.17523528416
 30
0.0
 10
4581.892344804635
 20
18435.52273984464
 30
0.0
 10
4590.035744833777
 20
18436.67375325688
 30
0.0
 10
4593.549661918737
 20
18436.70452042158
 30
0.0
 10
4600.234050088335
 20
18435.73579046303
 30
0.0
 10
4603.406542365457
 20
18434.73855096718
 30
0.0
 10
4608.163007132885
 20
18432.28765593365
 30
0.0
 10
4609.846730308262
 20
18431.20838539565
 30
0.0
 10
4613.13975780702
 20
18428.67430707254
 30
0.0
 10
4614.747330630155
 20
18427.22092464793
 30
0.0
 10
4620.239445464627
 20
18421.50997381209
 30
0.0
 10
4623.9193969267
 20
18416.313721153
 30
0.0
 10
4630.81296315207
 20
18404.0456247161
 30
0.0
 10
4634.027413543289
 20
18396.97649850036
 30
0.0
 10
4640.062473177915
 20
18381.35474187456
 30
0.0
 10
4642.883851813203
 20
18372.80227069281
 30
0.0
 10
4651.086699631749
 20
18344.85028192295
 30
0.0
 10
4655.9753401475
 20
18323.64067688484
 30
0.0
 10
4661.212676565838
 20
18299.20798350426
 30
0.0
 10
4661.749681480602
 20
18296.68182106022
 30
0.0
 10
4662.284892347638
 20
18294.14879820635
 30
0.0
  0
SPLINE
  5
1089D
330
1F
100
AcDbEntity
  8
sen1
 62
     0
100
AcDbSpline
210
0.0
220
0.0
230
1.0
 70
     8
 71
     3
 72
    10
 73
     6
 74
     0
 42
0.0000000001
 43
0.0000000001
 40
0.0
 40
0.0
 40
0.0
 40
0.0
 40
31.53566498506968
 40
31.53566498506968
 40
38.17526207402149
 40
38.17526207402149
 40
38.17526207402149
 40
38.17526207402149
 10
4426.90028940762
 20
18284.35361583975
 30
0.0
 10
4433.530103571388
 20
18293.6304316895
 30
0.0
 10
4440.665344980541
 20
18305.40111226381
 30
0.0
 10
4449.625148635896
 20
18320.19736785058
 30
0.0
 10
4451.195224683873
 20
18322.79081224264
 30
0.0
 10
4452.779634428663
 20
18325.39569290737
 30
0.0
  0
ARC
  5
1089E
330
1F
100
AcDbEntity
  8
sen1
 62
     0
100
AcDbCircle
 10
4707.409526640662
 20
18099.60069709685
 30
0.0
 40
332.8222666995638
100
AcDbArc
 50
35.63175486007295
 51
104.7838708964327
  0
SPLINE
  5
1089F
330
1F
100
AcDbEntity
  8
sen1
 62
     0
100
AcDbSpline
210
0.0
220
0.0
230
1.0
 70
     8
 71
     3
 72
     8
 73
     4
 74
     0
 42
0.0000000001
 43
0.0000000001
 40
38.30374433830927
 40
38.30374433830927
 40
38.30374433830927
 40
38.30374433830927
 40
152.8676239738173
 40
152.8676239738173
 40
152.8676239738173
 40
152.8676239738173
 10
4451.162848721335
 20
18326.58632045682
 30
0.0
 10
4478.535130506614
 20
18371.58116778267
 30
0.0
 10
4510.413103604362
 20
18420.29513953669
 30
0.0
 10
4560.272982575672
 20
18428.54547118065
 30
0.0
  0
SPLINE
  5
108A0
330
1F
100
AcDbEntity
  8
sen1
 62
     0
100
AcDbSpline
210
0.0
220
0.0
230
1.0
 70
     8
 71
     3
 72
    16
 73
    12
 74
     0
 42
0.0000000001
 43
0.0000000001
 40
46.42948162625521
 40
46.42948162625521
 40
46.42948162625521
 40
46.42948162625521
 40
63.07132997013937
 40
63.07132997013937
 40
94.60699495520906
 40
94.60699495520906
 40
120.5835748521955
 40
120.5835748521955
 40
142.3593889379827
 40
142.3593889379827
 40
148.4785328878102
 40
148.4785328878102
 40
148.4785328878102
 40
148.4785328878102
 10
4458.760179009323
 20
18335.147238986
 30
0.0
 10
4462.83076353376
 20
18341.71427584868
 30
0.0
 10
4467.011571767114
 20
18348.28612470978
 30
0.0
 10
4479.551700047914
 20
18366.93404614303
 30
0.0
 10
4488.302275668359
 20
18378.67119951774
 30
0.0
 10
4505.72165980463
 20
18397.54305618655
 30
0.0
 10
4514.131526431375
 20
18405.12307088115
 30
0.0
 10
4530.844346941756
 20
18416.40835220681
 30
0.0
 10
4538.942991376671
 20
18420.54308120174
 30
0.0
 10
4550.057620071107
 20
18424.18685205503
 30
0.0
 10
4552.541504421584
 20
18424.88449281898
 30
0.0
 10
4555.073953457839
 20
18425.47392248527
 30
0.0
  0
SPLINE
  5
108A3
330
1F
100
AcDbEntity
  8
sen1
 62
     0
100
AcDbSpline
210
0.0
220
0.0
230
1.0
 70
     8
 71
     3
 72
     8
 73
     4
 74
     0
 42
0.0000000001
 43
0.0000000001
 40
157.1668426810667
 40
157.1668426810667
 40
157.1668426810667
 40
157.1668426810667
 40
190.901890697232
 40
190.901890697232
 40
190.901890697232
 40
190.901890697232
 10
4565.962913416049
 20
18429.30101219554
 30
0.0
 10
4581.047901128554
 20
18430.81785030962
 30
0.0
 10
4597.735943660018
 20
18428.68233399992
 30
0.0
 10
4616.371128416968
 20
18421.7663472963
 30
0.0
  0
SPLINE
  5
108A4
330
1F
100
AcDbEntity
  8
sen1
 62
     0
100
AcDbSpline
210
0.0
220
0.0
230
1.0
 70
     8
 71
     3
 72
    12
 73
     8
 74
     0
 42
0.0000000001
 43
0.0000000001
 40
153.1399491661731
 40
153.1399491661731
 40
153.1399491661731
 40
153.1399491661731
 40
164.1352030237698
 40
164.1352030237698
 40
185.9110171095569
 40
185.9110171095569
 40
189.3180498242257
 40
189.3180498242257
 40
189.3180498242257
 40
189.3180498242257
 10
4560.947225803237
 20
18426.62968561425
 30
0.0
 10
4565.633585387053
 20
18427.3857492447
 30
0.0
 10
4570.483700706264
 20
18427.7763439233
 30
0.0
 10
4585.476304254512
 20
18427.73813728859
 30
0.0
 10
4596.148144687893
 20
18426.12883886028
 30
0.0
 10
4609.440336323564
 20
18422.06302711427
 30
0.0
 10
4611.258752716389
 20
18421.46624807519
 30
0.0
 10
4613.097598119686
 20
18420.82153918942
 30
0.0
  0
ARC
  5
108A5
330
1F
100
AcDbEntity
  8
sen1
 62
     0
100
AcDbCircle
 10
4707.523947792829
 20
18099.80060085359
 30
0.0
 40
334.6203495942972
100
AcDbArc
 50
105.330371544422
 51
146.527989251824
  0
ARC
  5
108A6
330
1F
100
AcDbEntity
  8
sen1
 62
     0
100
AcDbCircle
 10
4707.409526640662
 20
18099.60069709685
 30
0.0
 40
332.8222666995638
100
AcDbArc
 50
105.1564759718207
 51
146.5467725156877
  0
SPLINE
  5
108A7
330
1F
100
AcDbEntity
  8
sen1
 62
     0
100
AcDbSpline
210
0.0
220
0.0
230
1.0
 70
     8
 71
     3
 72
     8
 73
     4
 74
     0
 42
0.0000000001
 43
0.0000000001
 40
195.7942471698514
 40
195.7942471698514
 40
195.7942471698514
 40
195.7942471698514
 40
265.1292134665038
 40
265.1292134665038
 40
265.1292134665038
 40
265.1292134665038
 10
4624.602621683833
 20
18418.4523522364
 30
0.0
 10
4664.078757173387
 20
18401.33953933842
 30
0.0
 10
4711.990751907233
 20
18363.34209399173
 30
0.0
 10
4771.325925609217
 20
18294.66586789445
 30
0.0
  0
SPLINE
  5
108A8
330
1F
100
AcDbEntity
  8
sen1
 62
     0
100
AcDbSpline
210
0.0
220
0.0
230
1.0
 70
     8
 71
     3
 72
    12
 73
     8
 74
     0
 42
0.0000000001
 43
0.0000000001
 40
197.4490127967156
 40
197.4490127967156
 40
197.4490127967156
 40
197.4490127967156
 40
207.686831195344
 40
207.686831195344
 40
229.4626452811312
 40
229.4626452811312
 40
265.1121712944226
 40
265.1121712944226
 40
265.1121712944226
 40
265.1121712944226
 10
4626.616583219778
 20
18415.37014117726
 30
0.0
 10
4632.440918590648
 20
18412.72450319661
 30
0.0
 10
4638.456982823623
 20
18409.61975542485
 30
0.0
 10
4657.897343293572
 20
18398.37191907782
 30
0.0
 10
4672.02857466847
 20
18388.49437538195
 30
0.0
 10
4711.908037429816
 20
18355.7611323537
 30
0.0
 10
4739.319512770838
 20
18328.64644902115
 30
0.0
 10
4769.768712865533
 20
18293.40880903233
 30
0.0
  0
SPLINE
  5
108A9
330
1F
100
AcDbEntity
  8
sen1
 62
     0
100
AcDbSpline
210
0.0
220
0.0
230
1.0
 70
     8
 71
     3
 72
     8
 73
     4
 74
     0
 42
0.0000000001
 43
0.0000000001
 40
192.747009089569
 40
192.747009089569
 40
192.747009089569
 40
192.747009089569
 40
193.7232606411027
 40
193.7232606411027
 40
193.7232606411027
 40
193.7232606411027
 10
4619.446380264163
 20
18420.58846335996
 30
0.0
 10
4619.991853629617
 20
18420.3730924338
 30
0.0
 10
4620.538973397135
 20
18420.15366641274
 30
0.0
 10
4621.08774790564
 20
18419.93015795699
 30
0.0
  0
SPLINE
  5
108AA
330
1F
100
AcDbEntity
  8
sen1
 62
     0
100
AcDbSpline
210
0.0
220
0.0
230
1.0
 70
     8
 71
     3
 72
     8
 73
     4
 74
     0
 42
0.0000000001
 43
0.0000000001
 40
191.2354500576892
 40
191.2354500576892
 40
191.2354500576892
 40
191.2354500576892
 40
195.4781711821595
 40
195.4781711821595
 40
195.4781711821595
 40
195.4781711821595
 10
4616.221649575909
 20
18419.68729832761
 30
0.0
 10
4618.540300125721
 20
18418.81679109325
 30
0.0
 10
4620.890924823245
 20
18417.87089128987
 30
0.0
 10
4623.274174781204
 20
18416.84723949303
 30
0.0
  0
LINE
  5
108B8
330
1F
100
AcDbEntity
  8
sen1
100
AcDbLine
 10
4771.325925609217
 20
18294.66586789445
 30
0.0
 11
4769.768712865534
 21
18293.40880903233
 31
0.0
  0
LINE
  5
108C0
330
1F
100
AcDbEntity
  8
sen1
100
AcDbLine
 10
4977.920145585979
 20
18293.49413754509
 30
0.0
 11
4979.552156007999
 21
18294.66319936304
 31
0.0
  0
LINE
  5
108C2
330
1F
100
AcDbEntity
  8
sen1
 62
     0
100
AcDbLine
 10
4405.408020072309
 20
18282.35361583975
 30
0.0
 11
4428.444242917443
 21
18282.35361583975
 31
0.0
  0
ARC
  5
108C3
330
1F
100
AcDbEntity
  8
sen1
 62
     0
100
AcDbCircle
 10
4093.52289222859
 20
18099.60069709685
 30
0.0
 40
332.8222666995638
100
AcDbArc
 50
33.45322748431229
 51
74.84352402817922
  0
ARC
  5
108C4
330
1F
100
AcDbEntity
  8
sen1
 62
     0
100
AcDbCircle
 10
4093.408471076425
 20
18099.80060085359
 30
0.0
 40
334.6203495942972
100
AcDbArc
 50
33.47201074817599
 51
74.66962845557798
  0
SPLINE
  5
108C5
330
1F
100
AcDbEntity
  8
sen1
 62
     0
100
AcDbSpline
210
0.0
220
0.0
230
1.0
 70
     8
 71
     3
 72
    10
 73
     6
 74
     0
 42
0.0000000001
 43
0.0000000001
 40
0.0
 40
0.0
 40
0.0
 40
0.0
 40
31.53566498506968
 40
31.53566498506968
 40
38.17526207402149
 40
38.17526207402149
 40
38.17526207402149
 40
38.17526207402149
 10
4374.032129461633
 20
18284.35361583975
 30
0.0
 10
4367.402315297865
 20
18293.6304316895
 30
0.0
 10
4360.267073888712
 20
18305.40111226381
 30
0.0
 10
4351.307270233357
 20
18320.19736785058
 30
0.0
 10
4349.73719418538
 20
18322.79081224264
 30
0.0
 10
4348.15278444059
 20
18325.39569290737
 30
0.0
  0
SPLINE
  5
108C6
330
1F
100
AcDbEntity
  8
sen1
 62
     0
100
AcDbSpline
210
0.0
220
0.0
230
1.0
 70
     8
 71
     3
 72
    36
 73
    32
 74
     0
 42
0.0000000001
 43
0.0000000001
 40
0.0
 40
0.0
 40
0.0
 40
0.0
 40
24.96846944387092
 40
24.96846944387092
 40
74.90540833161276
 40
74.90540833161276
 40
116.7513562400474
 40
116.7513562400474
 40
158.5973041484821
 40
158.5973041484821
 40
185.4939342058551
 40
185.4939342058551
 40
207.1981008976411
 40
207.1981008976411
 40
225.168806480252
 40
225.168806480252
 40
243.139512062863
 40
243.139512062863
 40
253.4083886217747
 40
253.4083886217747
 40
263.6772651806866
 40
263.6772651806866
 40
289.3509618986179
 40
289.3509618986179
 40
315.0246586165492
 40
315.0246586165492
 40
340.6983553344805
 40
340.6983553344805
 40
393.852731141793
 40
393.852731141793
 40
399.9569838376391
 40
399.9569838376391
 40
399.9569838376391
 40
399.9569838376391
 10
4384.24628521844
 20
18284.35361583975
 30
0.0
 10
4377.288264367336
 20
18291.93490724628
 30
0.0
 10
4369.626883661258
 20
18300.82004435683
 30
0.0
 10
4346.749524392651
 20
18327.11431187264
 30
0.0
 10
4331.639815028853
 20
18344.16258059969
 30
0.0
 10
4304.633191182638
 20
18372.8694949567
 30
0.0
 10
4292.611969310625
 20
18384.9538263085
 30
0.0
 10
4269.491682049594
 20
18405.99291091009
 30
0.0
 10
4258.390535443473
 20
18414.94687591245
 30
0.0
 10
4241.228378040084
 20
18426.16346397509
 30
0.0
 10
4234.784236183622
 20
18429.67282663406
 30
0.0
 10
4223.747947136916
 20
18434.17523528416
 30
0.0
 10
4219.040074064618
 20
18435.52273984464
 30
0.0
 10
4210.896674035477
 20
18436.67375325688
 30
0.0
 10
4207.382756950516
 20
18436.70452042158
 30
0.0
 10
4200.698368780918
 20
18435.73579046303
 30
0.0
 10
4197.525876503795
 20
18434.73855096718
 30
0.0
 10
4192.769411736367
 20
18432.28765593365
 30
0.0
 10
4191.085688560991
 20
18431.20838539565
 30
0.0
 10
4187.792661062234
 20
18428.67430707254
 30
0.0
 10
4186.185088239098
 20
18427.22092464793
 30
0.0
 10
4180.692973404626
 20
18421.50997381209
 30
0.0
 10
4177.013021942554
 20
18416.313721153
 30
0.0
 10
4170.119455717183
 20
18404.0456247161
 30
0.0
 10
4166.905005325964
 20
18396.97649850036
 30
0.0
 10
4160.869945691337
 20
18381.35474187456
 30
0.0
 10
4158.04856705605
 20
18372.80227069281
 30
0.0
 10
4149.845719237504
 20
18344.85028192295
 30
0.0
 10
4144.957078721754
 20
18323.64067688484
 30
0.0
 10
4139.719742303415
 20
18299.20798350426
 30
0.0
 10
4139.182737388652
 20
18296.68182106022
 30
0.0
 10
4138.647526521615
 20
18294.14879820635
 30
0.0
  0
SPLINE
  5
108C7
330
1F
100
AcDbEntity
  8
sen1
 62
     0
100
AcDbSpline
210
0.0
220
0.0
230
1.0
 70
     8
 71
     3
 72
     9
 73
     5
 74
     0
 42
0.0000000001
 43
0.0000000001
 40
0.0
 40
0.0
 40
0.0
 40
0.0
 40
245.2264259821901
 40
399.9600753192478
 40
399.9600753192478
 40
399.9600753192478
 40
399.9600753192478
 10
4386.466209434624
 20
18284.35361583975
 30
0.0
 10
4311.201788226479
 20
18371.64016592602
 30
0.0
 10
4188.446814105314
 20
18514.00302509601
 30
0.0
 10
4150.265252945905
 20
18358.80749243662
 30
0.0
 10
4136.68991366813
 20
18294.55840037544
 30
0.0
  0
SPLINE
  5
108C8
330
1F
100
AcDbEntity
  8
sen1
 62
     0
100
AcDbSpline
210
0.0
220
0.0
230
1.0
 70
     8
 71
     3
 72
     8
 73
     4
 74
     0
 42
0.0000000001
 43
0.0000000001
 40
38.30374433830927
 40
38.30374433830927
 40
38.30374433830927
 40
38.30374433830927
 40
152.8676239738173
 40
152.8676239738173
 40
152.8676239738173
 40
152.8676239738173
 10
4349.769570147919
 20
18326.58632045682
 30
0.0
 10
4322.39728836264
 20
18371.58116778267
 30
0.0
 10
4290.519315264892
 20
18420.29513953669
 30
0.0
 10
4240.659436293581
 20
18428.54547118065
 30
0.0
  0
SPLINE
  5
108C9
330
1F
100
AcDbEntity
  8
sen1
 62
     0
100
AcDbSpline
210
0.0
220
0.0
230
1.0
 70
     8
 71
     3
 72
     8
 73
     4
 74
     0
 42
0.0000000001
 43
0.0000000001
 40
0.0
 40
0.0
 40
0.0
 40
0.0
 40
29.94389103885673
 40
29.94389103885673
 40
29.94389103885673
 40
29.94389103885673
 10
4376.217498128659
 20
18284.35361583975
 30
0.0
 10
4369.456871418703
 20
18294.1731082678
 30
0.0
 10
4362.696244708747
 20
18305.25585282814
 30
0.0
 10
4355.694988159328
 20
18316.8129268237
 30
0.0
  0
SPLINE
  5
108CA
330
1F
100
AcDbEntity
  8
sen1
 62
     0
100
AcDbSpline
210
0.0
220
0.0
230
1.0
 70
     8
 71
     3
 72
    16
 73
    12
 74
     0
 42
0.0000000001
 43
0.0000000001
 40
46.42948162625521
 40
46.42948162625521
 40
46.42948162625521
 40
46.42948162625521
 40
63.07132997013937
 40
63.07132997013937
 40
94.60699495520906
 40
94.60699495520906
 40
120.5835748521955
 40
120.5835748521955
 40
142.3593889379827
 40
142.3593889379827
 40
148.4785328878102
 40
148.4785328878102
 40
148.4785328878102
 40
148.4785328878102
 10
4342.17223985993
 20
18335.147238986
 30
0.0
 10
4338.101655335494
 20
18341.71427584868
 30
0.0
 10
4333.920847102139
 20
18348.28612470978
 30
0.0
 10
4321.380718821339
 20
18366.93404614303
 30
0.0
 10
4312.630143200895
 20
18378.67119951774
 30
0.0
 10
4295.210759064622
 20
18397.54305618655
 30
0.0
 10
4286.800892437878
 20
18405.12307088115
 30
0.0
 10
4270.088071927498
 20
18416.40835220681
 30
0.0
 10
4261.989427492582
 20
18420.54308120174
 30
0.0
 10
4250.874798798146
 20
18424.18685205503
 30
0.0
 10
4248.390914447669
 20
18424.88449281898
 30
0.0
 10
4245.858465411414
 20
18425.47392248527
 30
0.0
  0
SPLINE
  5
108CB
330
1F
100
AcDbEntity
  8
sen1
 62
     0
100
AcDbSpline
210
0.0
220
0.0
230
1.0
 70
     8
 71
     3
 72
     8
 73
     4
 74
     0
 42
0.0000000001
 43
0.0000000001
 40
195.7942471698514
 40
195.7942471698514
 40
195.7942471698514
 40
195.7942471698514
 40
265.1292134665038
 40
265.1292134665038
 40
265.1292134665038
 40
265.1292134665038
 10
4176.32979718542
 20
18418.4523522364
 30
0.0
 10
4136.853661695866
 20
18401.33953933842
 30
0.0
 10
4088.94166696202
 20
18363.34209399173
 30
0.0
 10
4029.606493260035
 20
18294.66586789445
 30
0.0
  0
SPLINE
  5
108CC
330
1F
100
AcDbEntity
  8
sen1
 62
     0
100
AcDbSpline
210
0.0
220
0.0
230
1.0
 70
     8
 71
     3
 72
    12
 73
     8
 74
     0
 42
0.0000000001
 43
0.0000000001
 40
197.4490127967156
 40
197.4490127967156
 40
197.4490127967156
 40
197.4490127967156
 40
207.686831195344
 40
207.686831195344
 40
229.4626452811312
 40
229.4626452811312
 40
265.1121712944226
 40
265.1121712944226
 40
265.1121712944226
 40
265.1121712944226
 10
4174.315835649475
 20
18415.37014117726
 30
0.0
 10
4168.491500278605
 20
18412.72450319661
 30
0.0
 10
4162.47543604563
 20
18409.61975542485
 30
0.0
 10
4143.035075575681
 20
18398.37191907782
 30
0.0
 10
4128.903844200783
 20
18388.49437538195
 30
0.0
 10
4089.024381439437
 20
18355.7611323537
 30
0.0
 10
4061.612906098416
 20
18328.64644902115
 30
0.0
 10
4031.163706003719
 20
18293.40880903233
 30
0.0
  0
SPLINE
  5
108CD
330
1F
100
AcDbEntity
  8
sen1
 62
     0
100
AcDbSpline
210
0.0
220
0.0
230
1.0
 70
     8
 71
     3
 72
     8
 73
     4
 74
     0
 42
0.0000000001
 43
0.0000000001
 40
191.2354500576892
 40
191.2354500576892
 40
191.2354500576892
 40
191.2354500576892
 40
195.4781711821595
 40
195.4781711821595
 40
195.4781711821595
 40
195.4781711821595
 10
4184.710769293344
 20
18419.68729832761
 30
0.0
 10
4182.392118743531
 20
18418.81679109325
 30
0.0
 10
4180.041494046008
 20
18417.87089128987
 30
0.0
 10
4177.65824408805
 20
18416.84723949303
 30
0.0
  0
SPLINE
  5
108CE
330
1F
100
AcDbEntity
  8
sen1
 62
     0
100
AcDbSpline
210
0.0
220
0.0
230
1.0
 70
     8
 71
     3
 72
    12
 73
     8
 74
     0
 42
0.0000000001
 43
0.0000000001
 40
153.1399491661731
 40
153.1399491661731
 40
153.1399491661731
 40
153.1399491661731
 40
164.1352030237698
 40
164.1352030237698
 40
185.9110171095569
 40
185.9110171095569
 40
189.3180498242257
 40
189.3180498242257
 40
189.3180498242257
 40
189.3180498242257
 10
4239.985193066017
 20
18426.62968561425
 30
0.0
 10
4235.298833482199
 20
18427.3857492447
 30
0.0
 10
4230.448718162988
 20
18427.7763439233
 30
0.0
 10
4215.456114614741
 20
18427.73813728859
 30
0.0
 10
4204.784274181361
 20
18426.12883886028
 30
0.0
 10
4191.492082545688
 20
18422.06302711427
 30
0.0
 10
4189.673666152864
 20
18421.46624807519
 30
0.0
 10
4187.834820749567
 20
18420.82153918942
 30
0.0
  0
SPLINE
  5
108CF
330
1F
100
AcDbEntity
  8
sen1
 62
     0
100
AcDbSpline
210
0.0
220
0.0
230
1.0
 70
     8
 71
     3
 72
     8
 73
     4
 74
     0
 42
0.0000000001
 43
0.0000000001
 40
192.747009089569
 40
192.747009089569
 40
192.747009089569
 40
192.747009089569
 40
193.7232606411027
 40
193.7232606411027
 40
193.7232606411027
 40
193.7232606411027
 10
4181.48603860509
 20
18420.58846335996
 30
0.0
 10
4180.940565239636
 20
18420.3730924338
 30
0.0
 10
4180.393445472119
 20
18420.15366641274
 30
0.0
 10
4179.844670963613
 20
18419.93015795699
 30
0.0
  0
SPLINE
  5
108D0
330
1F
100
AcDbEntity
  8
sen1
 62
     0
100
AcDbSpline
210
0.0
220
0.0
230
1.0
 70
     8
 71
     3
 72
     8
 73
     4
 74
     0
 42
0.0000000001
 43
0.0000000001
 40
157.1668426810667
 40
157.1668426810667
 40
157.1668426810667
 40
157.1668426810667
 40
190.901890697232
 40
190.901890697232
 40
190.901890697232
 40
190.901890697232
 10
4234.969505453205
 20
18429.30101219554
 30
0.0
 10
4219.884517740699
 20
18430.81785030962
 30
0.0
 10
4203.196475209235
 20
18428.68233399992
 30
0.0
 10
4184.561290452285
 20
18421.7663472963
 30
0.0
  0
ARC
  5
108D1
330
1F
100
AcDbEntity
  8
sen1
 62
     0
100
AcDbCircle
 10
4093.52289222859
 20
18099.60069709685
 30
0.0
 40
332.8222666995638
100
AcDbArc
 50
75.21612910356722
 51
144.368245139927
  0
ARC
  5
108D2
330
1F
100
AcDbEntity
  8
sen1
 62
     0
100
AcDbCircle
 10
4093.408471076425
 20
18099.80060085359
 30
0.0
 40
334.6203495942972
100
AcDbArc
 50
75.04485389224196
 51
144.3847508293293
  0
LINE
  5
108D3
330
1F
100
AcDbEntity
  8
sen1
 62
     0
100
AcDbLine
 10
4031.163706003717
 20
18293.40880903233
 30
0.0
 11
4024.422377620689
 21
18279.98854762459
 31
0.0
  0
LINE
  5
108D4
330
1F
100
AcDbEntity
  8
sen1
 62
     0
100
AcDbLine
 10
4029.606493260039
 20
18294.66586789445
 30
0.0
 11
4017.544893044955
 21
18285.79373546913
 31
0.0
  0
LINE
  5
108D5
330
1F
100
AcDbEntity
  8
sen1
100
AcDbLine
 10
4029.606493260035
 20
18294.66586789445
 30
0.0
 11
4031.163706003719
 21
18293.40880903233
 31
0.0
  0
ARC
  5
108D6
330
1F
100
AcDbEntity
  8
sen1
 62
     0
100
AcDbCircle
 10
4020.983635332818
 20
18282.89114154686
 30
0.0
 40
4.5
100
AcDbArc
 50
139.8327596307098
 51
319.8327596305389
  0
LINE
  5
108D7
330
1F
100
AcDbEntity
  8
sen1
 62
     0
100
AcDbLine
 10
4017.544893044952
 20
18285.79373546913
 30
0.0
 11
4024.422377620689
 21
18279.98854762459
 31
0.0
  0
ARC
  5
108D8
330
1F
100
AcDbEntity
  8
sen1
 62
     0
100
AcDbCircle
 10
4134.596453052728
 20
18279.67161632758
 30
0.0
 40
5.0
100
AcDbArc
 50
168.1811247617381
 51
348.181124761716
  0
LINE
  5
108D9
330
1F
100
AcDbEntity
  8
sen1
 62
     0
100
AcDbLine
 10
4129.702453215339
 20
18280.69570889743
 30
0.0
 11
4139.490452890123
 21
18278.64752375772
 31
0.0
  0
LINE
  5
108DA
330
1F
100
AcDbEntity
  8
sen1
 62
     0
100
AcDbLine
 10
4136.689930794813
 20
18294.55843435372
 30
0.0
 11
4138.647530729768
 21
18294.14879732578
 31
0.0
  0
LINE
  5
108DB
330
1F
100
AcDbEntity
  8
sen1
 62
     0
100
AcDbLine
 10
4136.689930794813
 20
18294.55843435372
 30
0.0
 11
4129.702453215343
 21
18280.69570889743
 31
0.0
  0
LINE
  5
108DC
330
1F
100
AcDbEntity
  8
sen1
 62
     0
100
AcDbLine
 10
4138.647530729768
 20
18294.14879732578
 30
0.0
 11
4139.490452890123
 21
18278.64752375772
 31
0.0
  0
LINE
  5
108DD
330
1F
100
AcDbEntity
  8
sen1
 62
     0
100
AcDbLine
 10
3821.380262861254
 20
18294.66319936304
 30
0.0
 11
3810.35274929224
 21
18284.35484524127
 31
0.0
  0
LINE
  5
108DE
330
1F
100
AcDbEntity
  8
sen1
100
AcDbLine
 10
3823.012273283273
 20
18293.49413754509
 30
0.0
 11
3821.380262861254
 21
18294.66319936304
 31
0.0
  0
LINE
  5
108DF
330
1F
100
AcDbEntity
  8
sen1
 62
     0
100
AcDbLine
 10
3823.012273283273
 20
18293.49413754509
 30
0.0
 11
3817.840180025201
 21
18279.36101094094
 31
0.0
  0
ARC
  5
108E0
330
1F
100
AcDbEntity
  8
sen1
 62
     0
100
AcDbCircle
 10
3814.096464658723
 20
18281.85792809111
 30
0.0
 40
4.5
100
AcDbArc
 50
146.2982059207045
 51
326.2982059206582
  0
LINE
  5
108E1
330
1F
100
AcDbEntity
  8
sen1
 62
     0
100
AcDbLine
 10
3810.352749292238
 20
18284.35484524127
 30
0.0
 11
3817.840180025201
 21
18279.36101094094
 31
0.0
  0
LINE
  5
108E2
330
1F
100
AcDbEntity
  8
moji
100
AcDbLine
 10
4631.254344791204
 20
18174.35361583975
 30
0.0
 11
4977.920145585977
 21
18174.35361583975
 31
0.0
  0
LINE
  5
10925
330
1F
100
AcDbEntity
  8
moji
100
AcDbLine
 10
4631.254344791204
 20
18274.35361583975
 30
0.0
 11
4977.920145585977
 21
18274.35361583975
 31
0.0
  0
DIMENSION
  5
10926
330
1F
100
AcDbEntity
  8
moji
100
AcDbDimension
  2
*D15
 10
5016.94932207623
 20
18174.35361583975
 30
0.0
 11
5024.549322076228
 21
18224.35361583975
 31
0.0
 70
    32
 71
     5
 42
100.0
  3
ISO-25
100
AcDbAlignedDimension
 13
4977.920145585977
 23
18274.35361583975
 33
0.0
 14
4977.920145585977
 24
18174.35361583975
 34
0.0
 50
90.0
100
AcDbRotatedDimension
1001
ACAD
1000
DSTYLE
1002
{
1070
    41
1040
1.0
1070
    42
1040
5.0
1070
    43
1040
5.0
1070
    44
1040
5.0
1070
    46
1040
1.0
1070
    77
1070
     2
1070
   140
1040
15.0
1070
   147
1040
0.1
1070
   174
1070
     1
1070
   176
1070
     5
1070
   177
1070
     5
1070
   271
1070
     4
1070
   272
1070
     4
1070
   276
1070
     2
1070
   341
1005
1877
1070
   342
1005
1877
1002
}
  0
HATCH
  5
1094D
330
1F
100
AcDbEntity
  8
moji
100
AcDbHatch
 10
0.0
 20
0.0
 30
0.0
210
0.0
220
0.0
230
1.0
  2
ANSI31
 70
     0
 71
     0
 91
        1
 92
        7
 72
     0
 73
     1
 93
        4
 10
4977.920145585976
 20
18174.35361583975
 10
4631.254344791204
 20
18174.35361583975
 10
4631.254344791204
 20
18154.35361583975
 10
4977.920145585977
 20
18154.35361583975
 97
        0
 75
     0
 76
     1
 52
0.0
 41
5.0
 77
     0
 78
     1
 53
45.0
 43
0.0
 44
0.0
 45
-11.22532015133643
 46
11.22532015133644
 79
     0
 47
0.6912109692663742
 98
        1
 10
4817.236869894695
 20
18161.73780510219
  0
MTEXT
  5
1094E
330
1F
100
AcDbEntity
  8
sen1
100
AcDbMText
 10
4725.237632892134
 20
18235.39947056487
 30
0.0
 40
10.0
 41
277.2144
 71
     1
 72
     5
  1
対象物より100ｍｍ程度
 73
     1
 44
1.0
  0
MTEXT
  5
10DAA
330
1F
100
AcDbEntity
  8
moji
370
     5
100
AcDbMText
 10
6605.696377404759
 20
21377.38632425357
 30
0.0
 40
2.5
 41
198.0686
 71
     5
 72
     5
  1
コイル/エンドポスト/コイルクリップ＝ステンレス（Ｄ＝100/125）*7620　
 73
     1
 44
1.0
  0
LINE
  5
10DAB
330
1F
100
AcDbEntity
  8
sen1
370
     5
100
AcDbLine
 10
6419.306651879728
 20
21379.88571074084
 30
0.0
 11
6754.306651879727
 21
21379.88571074084
 31
0.0
  0
LINE
  5
10DAC
330
1F
100
AcDbEntity
  8
sen1
370
     5
100
AcDbLine
 10
6419.306651879728
 20
21384.88571074084
 30
0.0
 11
6813.380769317136
 21
21384.88571074084
 31
0.0
  0
VIEWPORT
  5
10DAD
330
1F
100
AcDbEntity
  8
sen1
370
     5
100
AcDbViewport
 10
6616.343710598433
 20
21514.73513345463
 30
0.0
 40
394.0741174374085
 41
279.6963913766615
 69
     0
 12
4574.093881770841
 22
13308.69700840949
 13
0.0
 23
0.0
 14
10.0
 24
10.0
 15
10.0
 25
10.0
 16
0.0
 26
0.0
 36
1.0
 17
0.0
 27
0.0
 37
0.0
 42
50.0
 43
0.0
 44
0.0
 45
559.3927629359185
 50
0.0
 51
0.0
 72
   100
 90
    32864
  1

281
     0
 71
     1
 74
     0
110
0.0
120
0.0
130
0.0
111
1.0
121
0.0
131
0.0
112
0.0
122
1.0
132
0.0
 79
     0
146
0.0
  0
MTEXT
  5
10DAE
330
1F
100
AcDbEntity
  8
moji
370
     5
100
AcDbMText
 10
6479.306651879728
 20
21377.38632425357
 30
0.0
 40
2.5
 41
50.0
 71
     5
 72
     5
  1
バードコイル
 73
     1
 44
1.0
  0
MTEXT
  5
10DAF
330
1F
100
AcDbEntity
  8
moji
370
     5
100
AcDbMText
 10
6479.306651879728
 20
21382.38571074084
 30
0.0
 40
2.5
 41
50.0
 71
     5
 72
     5
  1
{\C7;名　　　　　称}
 73
     1
 44
1.0
  0
LINE
  5
10DB0
330
1F
100
AcDbEntity
  8
sen1
370
     5
100
AcDbLine
 10
6454.306651879727
 20
21384.88571074084
 30
0.0
 11
6454.306651879727
 21
21374.8869377663
 31
0.0
  0
MTEXT
  5
10DB1
330
1F
100
AcDbEntity
  8
moji
370
     5
100
AcDbMText
 10
6436.860286246383
 20
21382.06929156819
 30
0.0
 40
2.5
 41
35.0000176446858
 71
     5
 72
     5
  1
図面番号
 73
     1
 44
1.0
  0
LINE
  5
10DB2
330
1F
100
AcDbEntity
  8
sen1
370
     5
100
AcDbLine
 10
6504.306651879727
 20
21384.88571074084
 30
0.0
 11
6504.306651879727
 21
21374.8869377663
 31
0.0
  0
MTEXT
  5
10DB3
330
1F
100
AcDbEntity
  8
moji
370
     5
100
AcDbMText
 10
6492.199559543227
 20
21378.55915817377
 30
0.0
 40
1.5
 41
10.158
 71
     5
 72
     5
  1
{\C7;TM}
 73
     1
 44
1.0
  0
MTEXT
  5
10DB4
330
1F
100
AcDbEntity
  8
moji
370
     5
100
AcDbMText
 10
6529.306651879728
 20
21382.38571074084
 30
0.0
 40
2.5
 41
50.0
 71
     5
 72
     5
  1
{\C7;材　　　　　質}
 73
     1
 44
1.0
  0
MTEXT
  5
10DB5
330
1F
100
AcDbEntity
  8
moji
370
     5
100
AcDbMText
 10
6564.960913299528
 20
21382.3860174972
 30
0.0
 40
2.5
 41
50.0
 71
     5
 72
     5
  1
サイズ
 73
     1
 44
1.0
  0
MTEXT
  5
10DB6
330
1F
100
AcDbEntity
  8
moji
370
     5
100
AcDbMText
 10
6729.306651879728
 20
21377.38632425357
 30
0.0
 40
2.5
 41
50.0
 71
     5
 72
     5
  1
1/2
 73
     1
 44
1.0
  0
LINE
  5
10DB7
330
1F
100
AcDbEntity
  8
sen1
370
     5
100
AcDbLine
 10
6704.306651879727
 20
21384.88571074084
 30
0.0
 11
6704.306651879727
 21
21374.8869377663
 31
0.0
  0
MTEXT
  5
10DB8
330
1F
100
AcDbEntity
  8
moji
370
     5
100
AcDbMText
 10
6729.306651879728
 20
21382.3860174972
 30
0.0
 40
2.5
 41
50.0
 71
     5
 72
     5
  1
尺　　　　度
 73
     1
 44
1.0
  0
MTEXT
  5
10DB9
330
1F
100
AcDbEntity
  8
moji
370
     5
100
AcDbMText
 10
6783.843701879729
 20
21377.38571074084
 30
0.0
 40
2.5
 41
59.0741
 71
     5
 72
     5
  1
{\C7;バードマスター株式会社}
 73
     1
 44
1.0
  0
LINE
  5
10DBA
330
1F
100
AcDbEntity
  8
sen1
370
     5
100
AcDbLine
 10
6754.306651879727
 20
21384.88571074084
 30
0.0
 11
6754.306651879727
 21
21374.8869377663
 31
0.0
  0
SPLINE
  5
10DBB
330
1F
100
AcDbEntity
  8
0
370
     5
100
AcDbSpline
210
0.0
220
0.0
230
1.0
 70
     8
 71
     3
 72
     9
 73
     5
 74
     0
 42
0.0000000001
 43
0.0000000001
 40
0.0
 40
0.0
 40
0.0
 40
0.0
 40
6.006996181324775
 40
11.35988105465453
 40
11.35988105465453
 40
11.35988105465453
 40
11.35988105465453
 10
6773.335772200407
 20
21381.56304532668
 30
0.0
 10
6773.460317914125
 20
21381.57045491286
 30
0.0
 10
6773.724969902236
 20
21381.53648243072
 30
0.0
 10
6773.917547978839
 20
21381.33999978848
 30
0.0
 10
6773.891556373239
 20
21381.21394707833
 30
0.0
  0
SPLINE
  5
10DBC
330
1F
100
AcDbEntity
  8
0
370
     5
100
AcDbSpline
210
0.0
220
0.0
230
1.0
 70
     8
 71
     3
 72
    11
 73
     7
 74
     5
 42
0.0000000001
 43
0.0000000001
 44
0.0000000001
 40
0.0
 40
0.0
 40
0.0
 40
0.0
 40
0.4161877899725521
 40
0.81308652069516
 40
1.39074731960875
 40
1.82873309600731
 40
1.82873309600731
 40
1.82873309600731
 40
1.82873309600731
 10
6773.797895174907
 20
21383.36815159252
 30
0.0
 10
6773.927506285723
 20
21383.30156351551
 30
0.0
 10
6774.180721420035
 20
21383.1714735197
 30
0.0
 10
6774.262568817499
 20
21382.64111769831
 30
0.0
 10
6773.889700168396
 20
21382.2767880119
 30
0.0
 10
6773.59358244562
 20
21382.12086145619
 30
0.0
 10
6773.465885120714
 20
21382.05361994204
 30
0.0
 11
6773.797895174907
 21
21383.36815159252
 31
0.0
 11
6774.132922695383
 21
21383.12123290743
 31
0.0
 11
6774.199749714854
 21
21382.73000055713
 31
0.0
 11
6773.843766653683
 21
21382.27506313423
 31
0.0
 11
6773.465885120714
 21
21382.05361994204
 31
0.0
  0
SPLINE
  5
10DBD
330
1F
100
AcDbEntity
  8
0
370
     5
100
AcDbSpline
210
0.0
220
0.0
230
1.0
 70
     8
 71
     3
 72
    11
 73
     7
 74
     0
 42
0.0000000001
 43
0.0000000001
 40
0.0
 40
0.0
 40
0.0
 40
0.0
 40
9.99542598367776
 40
30.46384601694259
 40
43.85507980794651
 40
54.52778084958222
 40
54.52778084958222
 40
54.52778084958222
 40
54.52778084958222
 10
6773.312744260931
 20
21383.99315159252
 30
0.0
 10
6773.541633097035
 20
21383.99072514723
 30
0.0
 10
6774.849518673772
 20
21383.82720698509
 30
0.0
 10
6775.041734612783
 20
21382.77079299486
 30
0.0
 10
6774.703618798722
 20
21382.25771981148
 30
0.0
 10
6774.369405167262
 20
21381.99903125077
 30
0.0
 10
6774.160751269757
 20
21381.91064854467
 30
0.0
  0
LINE
  5
10DBE
330
1F
100
AcDbEntity
  8
0
370
     5
100
AcDbLine
 10
6773.797895174907
 20
21383.36815159252
 30
0.0
 11
6773.463776568693
 21
21382.06304532668
 31
0.0
  0
LINE
  5
10DBF
330
1F
100
AcDbEntity
  8
0
370
     5
100
AcDbLine
 10
6773.335772200407
 20
21381.56304532668
 30
0.0
 11
6773.063762917796
 21
21380.50054532668
 31
0.0
  0
LINE
  5
10DC0
330
1F
100
AcDbEntity
  8
0
370
     5
100
AcDbLine
 10
6772.418606543462
 20
21380.50054532668
 30
0.0
 11
6773.063762917796
 21
21380.50054532668
 31
0.0
  0
SPLINE
  5
10DC1
330
1F
100
AcDbEntity
  8
0
370
     5
100
AcDbSpline
210
0.0
220
0.0
230
1.0
 70
     8
 71
     3
 72
    11
 73
     7
 74
     5
 42
0.0000000001
 43
0.0000000001
 44
0.0000000001
 40
0.0
 40
0.0
 40
0.0
 40
0.0
 40
0.4161877899725521
 40
0.813086520695313
 40
1.390747319608903
 40
1.828733096007463
 40
1.828733096007463
 40
1.828733096007463
 40
1.828733096007463
 10
6770.539855484518
 20
21383.36815159252
 30
0.0
 10
6770.669466595333
 20
21383.30156351552
 30
0.0
 10
6770.922681729645
 20
21383.17147351972
 30
0.0
 10
6771.00452912711
 20
21382.64111769831
 30
0.0
 10
6770.631660478009
 20
21382.2767880119
 30
0.0
 10
6770.33554275523
 20
21382.12086145618
 30
0.0
 10
6770.207845430324
 20
21382.05361994204
 30
0.0
 11
6770.539855484518
 21
21383.36815159252
 31
0.0
 11
6770.874883004991
 21
21383.12123290743
 31
0.0
 11
6770.941710024465
 21
21382.73000055713
 31
0.0
 11
6770.585726963293
 21
21382.27506313423
 31
0.0
 11
6770.207845430324
 21
21382.05361994204
 31
0.0
  0
SPLINE
  5
10DC2
330
1F
100
AcDbEntity
  8
0
370
     5
100
AcDbSpline
210
0.0
220
0.0
230
1.0
 70
     8
 71
     3
 72
    11
 73
     7
 74
     0
 42
0.0000000001
 43
0.0000000001
 40
0.0
 40
0.0
 40
0.0
 40
0.0
 40
9.99542598367776
 40
30.46384601694259
 40
43.85507980794651
 40
54.52778084958222
 40
54.52778084958222
 40
54.52778084958222
 40
54.52778084958222
 10
6770.05470457054
 20
21383.99315159252
 30
0.0
 10
6770.283593406644
 20
21383.99072514723
 30
0.0
 10
6771.591478983381
 20
21383.82720698509
 30
0.0
 10
6771.783694922394
 20
21382.77079299486
 30
0.0
 10
6771.445579108332
 20
21382.25771981148
 30
0.0
 10
6771.111365476873
 20
21381.99903125077
 30
0.0
 10
6770.902711579367
 20
21381.91064854467
 30
0.0
  0
LINE
  5
10DC3
330
1F
100
AcDbEntity
  8
0
370
     5
100
AcDbLine
 10
6773.312744260931
 20
21383.99315159252
 30
0.0
 11
6772.418606543462
 21
21380.50054532668
 31
0.0
  0
LINE
  5
10DC4
330
1F
100
AcDbEntity
  8
0
370
     5
100
AcDbLine
 10
6772.990166073764
 20
21383.99315159252
 30
0.0
 11
6772.096028356294
 21
21380.50054532668
 31
0.0
  0
LINE
  5
10DC5
330
1F
100
AcDbEntity
  8
0
370
     5
100
AcDbLine
 10
6772.34500969943
 20
21383.99315159252
 30
0.0
 11
6771.450871981959
 21
21380.50054532668
 31
0.0
  0
LINE
  5
10DC6
330
1F
100
AcDbEntity
  8
0
370
     5
100
AcDbLine
 10
6769.432576135681
 20
21381.56304532668
 30
0.0
 11
6769.160566853071
 21
21380.50054532668
 31
0.0
  0
LINE
  5
10DC7
330
1F
100
AcDbEntity
  8
0
370
     5
100
AcDbLine
 10
6772.34500969943
 20
21383.99315159252
 30
0.0
 11
6772.990166073764
 21
21383.99315159252
 31
0.0
  0
LINE
  5
10DC8
330
1F
100
AcDbEntity
  8
0
370
     5
100
AcDbLine
 10
6770.539855484518
 20
21383.36815159252
 30
0.0
 11
6770.205736878303
 21
21382.06304532668
 31
0.0
  0
LINE
  5
10DC9
330
1F
100
AcDbEntity
  8
0
370
     5
100
AcDbLine
 10
6770.077732510016
 20
21381.56304532668
 30
0.0
 11
6769.965728687765
 21
21381.12554532668
 31
0.0
  0
SPLINE
  5
10DCA
330
1F
100
AcDbEntity
  8
0
370
     5
100
AcDbSpline
210
0.0
220
0.0
230
1.0
 70
     8
 71
     3
 72
    11
 73
     7
 74
     0
 42
0.0000000001
 43
0.0000000001
 40
11.28374735643573
 40
11.28374735643573
 40
11.28374735643573
 40
11.28374735643573
 40
19.24875081026834
 40
26.28230567960155
 40
32.44434280281309
 40
62.76110915332036
 40
62.76110915332036
 40
62.76110915332036
 40
62.76110915332036
 10
6770.902711579366
 20
21381.91064854466
 30
0.0
 10
6771.070438808466
 20
21381.850789573
 30
0.0
 10
6771.374125763447
 20
21381.68349748813
 30
0.0
 10
6771.349100687456
 20
21381.15496502215
 30
0.0
 10
6770.610978176243
 20
21380.55761172978
 30
0.0
 10
6769.818870709336
 20
21380.5264462781
 30
0.0
 10
6769.160566853071
 20
21380.50054532668
 30
0.0
  0
SPLINE
  5
10DCB
330
1F
100
AcDbEntity
  8
0
370
     5
100
AcDbSpline
210
0.0
220
0.0
230
1.0
 70
     8
 71
     3
 72
    11
 73
     7
 74
     5
 42
0.0000000001
 43
0.0000000001
 44
0.0000000001
 40
0.0
 40
0.0
 40
0.0
 40
0.0
 40
0.3683125951841867
 40
0.5766522490138147
 40
0.9309622228058895
 40
1.268281931827467
 40
1.268281931827467
 40
1.268281931827467
 40
1.268281931827467
 10
6770.077732510016
 20
21381.56304532668
 30
0.0
 10
6770.200774837725
 20
21381.57205758467
 30
0.0
 10
6770.393417272237
 20
21381.58616771532
 30
0.0
 10
6770.68920856708
 20
21381.31535920444
 30
0.0
 10
6770.284708100311
 20
21381.10442546345
 30
0.0
 10
6770.070299469844
 20
21381.11862161772
 30
0.0
 10
6769.965728687765
 20
21381.12554532668
 30
0.0
 11
6770.077732510016
 21
21381.56304532668
 31
0.0
 11
6770.443014670092
 21
21381.51589544543
 31
0.0
 11
6770.5836455868
 21
21381.36218026523
 31
0.0
 11
6770.302383753386
 21
21381.14671022417
 31
0.0
 11
6769.965728687765
 21
21381.12554532668
 31
0.0
  0
LINE
  5
10DCC
330
1F
100
AcDbEntity
  8
0
370
     5
100
AcDbLine
 10
6768.819677580063
 20
21381.56304532668
 30
0.0
 11
6769.173486679368
 21
21382.06304532668
 31
0.0
  0
LINE
  5
10DCD
330
1F
100
AcDbEntity
  8
0
370
     5
100
AcDbLine
 10
6769.173486679368
 20
21382.06304532668
 30
0.0
 11
6769.560580503969
 21
21382.06304532668
 31
0.0
  0
LINE
  5
10DCE
330
1F
100
AcDbEntity
  8
0
370
     5
100
AcDbLine
 10
6768.819677580063
 20
21381.56304532668
 30
0.0
 11
6769.432576135681
 21
21381.56304532668
 31
0.0
  0
LINE
  5
10DCF
330
1F
100
AcDbEntity
  8
0
370
     5
100
AcDbLine
 10
6770.05470457054
 20
21383.99315159252
 30
0.0
 11
6769.560580503969
 21
21382.06304532668
 31
0.0
  0
LINE
  5
10DD0
330
1F
100
AcDbEntity
  8
0
370
     5
100
AcDbLine
 10
6771.450871981959
 20
21380.50054532668
 30
0.0
 11
6772.096028356294
 21
21380.50054532668
 31
0.0
  0
LINE
  5
10DD1
330
1F
100
AcDbEntity
  8
0
370
     5
100
AcDbLine
 10
6789.143146100983
 20
21382.01778065075
 30
0.0
 11
6790.34610449545
 21
21382.01778065075
 31
0.0
  0
SPLINE
  5
10DD2
330
1F
100
AcDbEntity
  8
0
370
     5
100
AcDbSpline
210
0.0
220
0.0
230
1.0
 70
     8
 71
     3
 72
    10
 73
     6
 74
     0
 42
0.0000000001
 43
0.0000000001
 40
0.0
 40
0.0
 40
0.0
 40
0.0
 40
26.19112590873103
 40
40.98940803847752
 40
41.72531218459136
 40
41.72531218459136
 40
41.72531218459136
 40
41.72531218459136
 10
6790.840228562022
 20
21383.94788691658
 30
0.0
 10
6790.401178706263
 20
21383.61842123228
 30
0.0
 10
6789.714060720204
 20
21383.10280371298
 30
0.0
 10
6789.230602274855
 20
21382.35067459996
 30
0.0
 10
6789.146881756639
 20
21382.03290509589
 30
0.0
 10
6789.143146100983
 20
21382.01778065075
 30
0.0
  0
LINE
  5
10DD3
330
1F
100
AcDbEntity
  8
0
370
     5
100
AcDbLine
 10
6790.34610449545
 20
21382.01778065075
 30
0.0
 11
6789.895521939996
 21
21381.51778065075
 31
0.0
  0
LINE
  5
10DD4
330
1F
100
AcDbEntity
  8
0
370
     5
100
AcDbLine
 10
6789.822657991966
 20
21383.94788691658
 30
0.0
 11
6790.840228562022
 21
21383.94788691658
 31
0.0
  0
LINE
  5
10DD5
330
1F
100
AcDbEntity
  8
0
370
     5
100
AcDbLine
 10
6781.434057978202
 20
21380.45528065075
 30
0.0
 11
6782.079214352537
 21
21380.45528065075
 31
0.0
  0
LINE
  5
10DD6
330
1F
100
AcDbEntity
  8
0
370
     5
100
AcDbLine
 10
6782.001144534698
 20
21382.67038691659
 30
0.0
 11
6781.434057978202
 21
21380.45528065075
 31
0.0
  0
SPLINE
  5
10DD7
330
1F
100
AcDbEntity
  8
0
370
     5
100
AcDbSpline
210
0.0
220
0.0
230
1.0
 70
     8
 71
     3
 72
    11
 73
     7
 74
     0
 42
0.0000000001
 43
0.0000000001
 40
20.63988049728201
 40
20.63988049728201
 40
20.63988049728201
 40
20.63988049728201
 40
21.03808777402665
 40
33.63611647905815
 40
40.96999540071692
 40
56.0776740399479
 40
56.0776740399479
 40
56.0776740399479
 40
56.0776740399479
 10
6780.479225777156
 20
21383.63655531236
 30
0.0
 10
6780.479225777156
 20
21383.63655531236
 30
0.0
 10
6780.808810994473
 20
21383.91184281844
 30
0.0
 10
6781.288706989292
 20
21383.98866747717
 30
0.0
 10
6781.537261739372
 20
21383.84416379492
 30
0.0
 10
6781.853604276388
 20
21383.6183768084
 30
0.0
 10
6781.765609317966
 20
21383.01038691658
 30
0.0
  0
LINE
  5
10DD8
330
1F
100
AcDbEntity
  8
0
370
     5
100
AcDbLine
 10
6779.337299761613
 20
21380.45528065075
 30
0.0
 11
6779.982456135948
 21
21380.45528065075
 31
0.0
  0
LINE
  5
10DD9
330
1F
100
AcDbEntity
  8
0
370
     5
100
AcDbLine
 10
6780.466323416701
 20
21380.45528065075
 30
0.0
 11
6781.111479791033
 21
21380.45528065075
 31
0.0
  0
LINE
  5
10DDA
330
1F
100
AcDbEntity
  8
0
370
     5
100
AcDbLine
 10
6779.449309881012
 20
21382.78284731164
 30
0.0
 11
6778.853432480862
 21
21380.45528065075
 31
0.0
  0
LINE
  5
10DDB
330
1F
100
AcDbEntity
  8
0
370
     5
100
AcDbLine
 10
6779.991429288546
 20
21383.01038691658
 30
0.0
 11
6779.337299761613
 21
21380.45528065075
 31
0.0
  0
LINE
  5
10DDC
330
1F
100
AcDbEntity
  8
0
370
     5
100
AcDbLine
 10
6780.576016701322
 20
21382.77379748464
 30
0.0
 11
6779.982456135948
 21
21380.45528065075
 31
0.0
  0
LINE
  5
10DDD
330
1F
100
AcDbEntity
  8
0
370
     5
100
AcDbLine
 10
6781.118651462488
 20
21383.00120515455
 30
0.0
 11
6780.466323416701
 21
21380.45528065075
 31
0.0
  0
SPLINE
  5
10DDE
330
1F
100
AcDbEntity
  8
0
370
     5
100
AcDbSpline
210
0.0
220
0.0
230
1.0
 70
     8
 71
     3
 72
    13
 73
     9
 74
     7
 42
0.0000000001
 43
0.0000000001
 44
0.0000000001
 40
0.0
 40
0.0
 40
0.0
 40
0.0
 40
0.3951540234382361
 40
0.5273403931897715
 40
0.7120308858821031
 40
0.9107073335722006
 40
1.068590355331194
 40
1.223305026989202
 40
1.223305026989202
 40
1.223305026989202
 40
1.223305026989202
 10
6780.576016701322
 20
21382.77379748464
 30
0.0
 10
6780.608235046736
 20
21382.90376346811
 30
0.0
 10
6780.651231027878
 20
21383.07720549011
 30
0.0
 10
6780.783097008825
 20
21383.27333201487
 30
0.0
 10
6780.916883347
 20
21383.40093712718
 30
0.0
 10
6781.142006931061
 20
21383.34036519642
 30
0.0
 10
6781.160707258841
 20
21383.14917148982
 30
0.0
 10
6781.132575016004
 20
21383.05019286532
 30
0.0
 10
6781.118651462488
 20
21383.00120515455
 30
0.0
 11
6780.576016701322
 21
21382.77379748464
 31
0.0
 11
6780.703366695778
 21
21383.14786790736
 31
0.0
 11
6780.777470649349
 21
21383.25732950068
 31
0.0
 11
6780.927172750548
 21
21383.36549538712
 31
0.0
 11
6781.11697817902
 21
21383.30679078602
 31
0.0
 11
6781.150730168838
 21
21383.15255767757
 31
0.0
 11
6781.118651462488
 21
21383.00120515455
 31
0.0
  0
SPLINE
  5
10DDF
330
1F
100
AcDbEntity
  8
0
370
     5
100
AcDbSpline
210
0.0
220
0.0
230
1.0
 70
     8
 71
     3
 72
    13
 73
     9
 74
     7
 42
0.0000000001
 43
0.0000000001
 44
0.0000000001
 40
0.0
 40
0.0
 40
0.0
 40
0.0
 40
0.3923699811315868
 40
0.5210288625637288
 40
0.6899437745504181
 40
0.8346153173623099
 40
1.009515806888077
 40
1.123133061676541
 40
1.123133061676541
 40
1.123133061676541
 40
1.123133061676541
 10
6779.449309881012
 20
21382.78284731164
 30
0.0
 10
6779.488028287544
 20
21382.90716591515
 30
0.0
 10
6779.539442535028
 20
21383.07224883101
 30
0.0
 10
6779.659944267777
 20
21383.27711561491
 30
0.0
 10
6779.804851996292
 20
21383.33170536367
 30
0.0
 10
6779.990886993555
 20
21383.31193265305
 30
0.0
 10
6780.021797703089
 20
21383.13808959908
 30
0.0
 10
6780.000009431782
 20
21383.04646740758
 30
0.0
 10
6779.991429288546
 20
21383.01038691658
 30
0.0
 11
6779.449309881012
 21
21382.78284731164
 31
0.0
 11
6779.587914609525
 21
21383.14992078021
 31
0.0
 11
6779.661424803832
 21
21383.25551130585
 31
0.0
 11
6779.817633946187
 21
21383.31978378313
 31
0.0
 11
6779.959105526515
 21
21383.28952411924
 31
0.0
 11
6780.010598267894
 21
21383.12237544643
 31
0.0
 11
6779.991429288546
 21
21383.01038691658
 31
0.0
  0
SPLINE
  5
10DE0
330
1F
100
AcDbEntity
  8
0
370
     5
100
AcDbSpline
210
0.0
220
0.0
230
1.0
 70
     8
 71
     3
 72
    11
 73
     7
 74
     0
 42
0.0000000001
 43
0.0000000001
 40
0.0
 40
0.0
 40
0.0
 40
0.0
 40
17.59159681167854
 40
25.1194859651702
 40
34.36323600136965
 40
39.83447686908764
 40
39.83447686908764
 40
39.83447686908764
 40
39.83447686908764
 10
6778.775362663025
 20
21382.67038691659
 30
0.0
 10
6778.8946823435
 20
21383.04165614151
 30
0.0
 10
6779.065061932752
 20
21383.57180085689
 30
0.0
 10
6779.551645935244
 20
21383.91184281844
 30
0.0
 10
6779.983529098988
 20
21383.98856345373
 30
0.0
 10
6780.399513709387
 20
21383.87066381005
 30
0.0
 10
6780.479225777156
 20
21383.63655531236
 30
0.0
  0
LINE
  5
10DE1
330
1F
100
AcDbEntity
  8
0
370
     5
100
AcDbLine
 10
6781.765609317966
 20
21383.01038691658
 30
0.0
 11
6781.111479791033
 21
21380.45528065075
 31
0.0
  0
LINE
  5
10DE2
330
1F
100
AcDbEntity
  8
0
370
     5
100
AcDbLine
 10
6778.775362663025
 20
21382.67038691659
 30
0.0
 11
6778.208276106528
 21
21380.45528065075
 31
0.0
  0
LINE
  5
10DE3
330
1F
100
AcDbEntity
  8
0
370
     5
100
AcDbLine
 10
6773.70891929213
 20
21380.50054532668
 30
0.0
 11
6774.354075666465
 21
21380.50054532668
 31
0.0
  0
LINE
  5
10DE4
330
1F
100
AcDbEntity
  8
0
370
     5
100
AcDbLine
 10
6778.208276106528
 20
21380.45528065075
 30
0.0
 11
6778.853432480862
 21
21380.45528065075
 31
0.0
  0
SPLINE
  5
10DE5
330
1F
100
AcDbEntity
  8
0
370
     5
100
AcDbSpline
210
0.0
220
0.0
230
1.0
 70
     8
 71
     3
 72
    12
 73
     8
 74
     6
 42
0.0000000001
 43
0.0000000001
 44
0.0000000001
 40
0.0
 40
0.0
 40
0.0
 40
0.0
 40
0.5971207833898893
 40
1.137226253200806
 40
2.245043331751986
 40
2.722964805079109
 40
3.617229052455587
 40
3.617229052455587
 40
3.617229052455587
 40
3.617229052455587
 10
6776.047912917881
 20
21383.31363825455
 30
0.0
 10
6776.241263877778
 20
21383.27523824546
 30
0.0
 10
6776.609503928685
 20
21383.202104803
 30
0.0
 10
6777.297759922622
 20
21382.72065435873
 30
0.0
 10
6776.919505390704
 20
21381.82959594643
 30
0.0
 10
6776.260227280237
 20
21381.34690113723
 30
0.0
 10
6775.800420406541
 20
21381.25768765921
 30
0.0
 10
6775.500760643551
 20
21381.19954653256
 30
0.0
 11
6776.047912917881
 21
21383.31363825455
 31
0.0
 11
6776.622561019795
 21
21383.15136444604
 31
0.0
 11
6777.037952819729
 21
21382.80616367683
 31
0.0
 11
6776.739393464445
 21
21381.73933614115
 31
0.0
 11
6776.359379233998
 21
21381.44951185071
 31
0.0
 11
6775.500760643551
 21
21381.19954653256
 31
0.0
  0
SPLINE
  5
10DE6
330
1F
100
AcDbEntity
  8
0
370
     5
100
AcDbSpline
210
0.0
220
0.0
230
1.0
 70
     8
 71
     3
 72
    13
 73
     9
 74
     7
 42
0.0000000001
 43
0.0000000001
 44
0.0000000001
 40
0.0
 40
0.0
 40
0.0
 40
0.0
 40
1.409241115267659
 40
2.405878522005215
 40
3.343504335967939
 40
4.972975380453323
 40
5.878945548101077
 40
6.926912156033994
 40
6.926912156033994
 40
6.926912156033994
 40
6.926912156033994
 10
6775.570791571102
 20
21383.99315159252
 30
0.0
 10
6776.039615450645
 20
21383.95187675072
 30
0.0
 10
6776.83999892667
 20
21383.88141169383
 30
0.0
 10
6777.842375994421
 20
21383.1152406624
 30
0.0
 10
6777.69474323085
 20
21381.80743796183
 30
0.0
 10
6776.852979059836
 20
21380.8622695246
 30
0.0
 10
6775.674654238878
 20
21380.56229990718
 30
0.0
 10
6775.025056498495
 20
21380.52210389469
 30
0.0
 10
6774.676653853632
 20
21380.50054532668
 30
0.0
 11
6775.570791571102
 21
21383.99315159252
 31
0.0
 11
6776.950122101787
 21
21383.70434749268
 31
0.0
 11
6777.68484125205
 21
21383.03094279212
 31
0.0
 11
6777.654587961163
 21
21382.09380517928
 31
0.0
 11
6776.58708293993
 21
21380.86270448702
 31
0.0
 11
6775.719822701674
 21
21380.60070902178
 31
0.0
 11
6774.676653853632
 21
21380.50054532668
 31
0.0
  0
LINE
  5
10DE7
330
1F
100
AcDbEntity
  8
0
370
     5
100
AcDbLine
 10
6776.047912917881
 20
21383.31363825455
 30
0.0
 11
6775.500760643551
 21
21381.19954653256
 31
0.0
  0
LINE
  5
10DE8
330
1F
100
AcDbEntity
  8
0
370
     5
100
AcDbLine
 10
6774.582310580351
 20
21381.39205753418
 30
0.0
 11
6774.354075666465
 21
21380.50054532668
 31
0.0
  0
LINE
  5
10DE9
330
1F
100
AcDbEntity
  8
0
370
     5
100
AcDbLine
 10
6773.891556373239
 20
21381.21394707833
 30
0.0
 11
6773.70891929213
 21
21380.50054532668
 31
0.0
  0
LINE
  5
10DEA
330
1F
100
AcDbEntity
  8
0
370
     5
100
AcDbLine
 10
6775.570791571102
 20
21383.99315159252
 30
0.0
 11
6774.676653853632
 21
21380.50054532668
 31
0.0
  0
SPLINE
  5
10DEB
330
1F
100
AcDbEntity
  8
0
370
     5
100
AcDbSpline
210
0.0
220
0.0
230
1.0
 70
     8
 71
     3
 72
     9
 73
     5
 74
     0
 42
0.0000000001
 43
0.0000000001
 40
11.28374735643573
 40
11.28374735643573
 40
11.28374735643573
 40
11.28374735643573
 40
19.24875081026834
 40
24.90900566825834
 40
24.90900566825834
 40
24.90900566825834
 40
24.90900566825834
 10
6774.160751269757
 20
21381.91064854467
 30
0.0
 10
6774.328478498857
 20
21381.850789573
 30
0.0
 10
6774.589129822809
 20
21381.69498976515
 30
0.0
 10
6774.597238339658
 20
21381.48027675352
 30
0.0
 10
6774.582310580351
 20
21381.39205753418
 30
0.0
  0
LINE
  5
10DEC
330
1F
100
AcDbEntity
  8
0
370
     5
100
AcDbLine
 10
6789.100252029657
 20
21380.45528065075
 30
0.0
 11
6789.946090844553
 21
21380.45528065075
 31
0.0
  0
LINE
  5
10DED
330
1F
100
AcDbEntity
  8
0
370
     5
100
AcDbLine
 10
6789.121469853963
 20
21381.51778065075
 30
0.0
 11
6789.895521939996
 21
21381.51778065075
 31
0.0
  0
SPLINE
  5
10DEE
330
1F
100
AcDbEntity
  8
0
370
     5
100
AcDbSpline
210
0.0
220
0.0
230
1.0
 70
     8
 71
     3
 72
    10
 73
     6
 74
     0
 42
0.0000000001
 43
0.0000000001
 40
49.72086639217938
 40
49.72086639217938
 40
49.72086639217938
 40
49.72086639217938
 40
49.92468886743607
 40
58.79230099387511
 40
71.56139063351249
 40
71.56139063351249
 40
71.56139063351249
 40
71.56139063351249
 10
6789.121469853963
 20
21381.51778065075
 30
0.0
 10
6789.122293111977
 20
21381.51362537349
 30
0.0
 10
6789.160254594998
 20
21381.32896792503
 30
0.0
 10
6789.39467395493
 20
21380.91576664222
 30
0.0
 10
6789.74144240007
 20
21380.62618173055
 30
0.0
 10
6789.946090844553
 20
21380.45528065075
 30
0.0
  0
SPLINE
  5
10DEF
330
1F
100
AcDbEntity
  8
0
370
     5
100
AcDbSpline
210
0.0
220
0.0
230
1.0
 70
     8
 71
     3
 72
    10
 73
     6
 74
     0
 42
0.0000000001
 43
0.0000000001
 40
47.00573219802856
 40
47.00573219802856
 40
47.00573219802856
 40
47.00573219802856
 40
47.71308536983972
 40
54.09531033586397
 40
67.52744589159572
 40
67.52744589159572
 40
67.52744589159572
 40
67.52744589159572
 10
6788.411965958833
 20
21381.51778065075
 30
0.0
 10
6788.414850858207
 20
21381.50325511146
 30
0.0
 10
6788.446156068051
 20
21381.35815412583
 30
0.0
 10
6788.606928746999
 20
21380.95439526062
 30
0.0
 10
6788.900113890081
 20
21380.65638050992
 30
0.0
 10
6789.100252029657
 20
21380.45528065075
 30
0.0
  0
SPLINE
  5
10DF0
330
1F
100
AcDbEntity
  8
0
370
     5
100
AcDbSpline
210
0.0
220
0.0
230
1.0
 70
     8
 71
     3
 72
     9
 73
     5
 74
     0
 42
0.0000000001
 43
0.0000000001
 40
0.0
 40
0.0
 40
0.0
 40
0.0
 40
22.69091522551075
 40
39.01131959156788
 40
39.01131959156788
 40
39.01131959156788
 40
39.01131959156788
 10
6789.822657991966
 20
21383.94788691658
 30
0.0
 10
6789.459119868545
 20
21383.64205109612
 30
0.0
 10
6788.834107533187
 20
21383.11624335252
 30
0.0
 10
6788.451398278199
 20
21382.3556505166
 30
0.0
 10
6788.401612846662
 20
21382.01778065075
 30
0.0
  0
LINE
  5
10DF1
330
1F
100
AcDbEntity
  8
0
370
     5
100
AcDbLine
 10
6788.08805718528
 20
21382.01778065075
 30
0.0
 11
6787.637474629824
 21
21381.51778065075
 31
0.0
  0
LINE
  5
10DF2
330
1F
100
AcDbEntity
  8
0
370
     5
100
AcDbLine
 10
6786.397730785712
 20
21380.45528065075
 30
0.0
 11
6787.042887160047
 21
21380.45528065075
 31
0.0
  0
LINE
  5
10DF3
330
1F
100
AcDbEntity
  8
0
370
     5
100
AcDbLine
 10
6786.646712128848
 20
21383.94788691658
 30
0.0
 11
6788.582181251851
 21
21383.94788691658
 31
0.0
  0
LINE
  5
10DF4
330
1F
100
AcDbEntity
  8
0
370
     5
100
AcDbLine
 10
6783.369527101206
 20
21380.45528065075
 30
0.0
 11
6782.724370726872
 21
21380.45528065075
 31
0.0
  0
LINE
  5
10DF5
330
1F
100
AcDbEntity
  8
0
370
     5
100
AcDbLine
 10
6787.777019417157
 20
21383.32288691659
 30
0.0
 11
6788.422175791493
 21
21383.32288691659
 31
0.0
  0
LINE
  5
10DF6
330
1F
100
AcDbEntity
  8
0
370
     5
100
AcDbLine
 10
6786.646712128848
 20
21383.94788691658
 30
0.0
 11
6786.164128481321
 21
21383.32288691659
 31
0.0
  0
LINE
  5
10DF7
330
1F
100
AcDbEntity
  8
0
370
     5
100
AcDbLine
 10
6788.582181251851
 20
21383.94788691658
 30
0.0
 11
6788.422175791493
 21
21383.32288691659
 31
0.0
  0
LINE
  5
10DF8
330
1F
100
AcDbEntity
  8
0
370
     5
100
AcDbLine
 10
6787.777019417157
 20
21383.32288691659
 30
0.0
 11
6787.042887160047
 21
21380.45528065075
 31
0.0
  0
LINE
  5
10DF9
330
1F
100
AcDbEntity
  8
0
370
     5
100
AcDbLine
 10
6787.131863042823
 20
21383.32288691659
 30
0.0
 11
6786.397730785712
 21
21380.45528065075
 31
0.0
  0
SPLINE
  5
10DFA
330
1F
100
AcDbEntity
  8
0
370
     5
100
AcDbSpline
210
0.0
220
0.0
230
1.0
 70
     8
 71
     3
 72
    16
 73
    12
 74
    10
 42
0.0000000001
 43
0.0000000001
 44
0.0000000001
 40
0.0
 40
0.0
 40
0.0
 40
0.0
 40
0.9289266155874713
 40
1.487558063809538
 40
2.177623278405573
 40
2.424242728515813
 40
2.776820329389573
 40
3.091654488551565
 40
3.541313400595903
 40
4.240009744002725
 40
4.660193140610157
 40
4.660193140610157
 40
4.660193140610157
 40
4.660193140610157
 10
6785.577248342062
 20
21383.94788691658
 30
0.0
 10
6785.318706365676
 20
21383.77859362778
 30
0.0
 10
6784.904684207894
 20
21383.50749191461
 30
0.0
 10
6784.334881552005
 20
21383.04427680893
 30
0.0
 10
6784.196136900013
 20
21382.48651677916
 30
0.0
 10
6784.383509137818
 20
21382.0929108903
 30
0.0
 10
6784.525761168248
 20
21381.83100897583
 30
0.0
 10
6784.791220726828
 20
21381.52579873657
 30
0.0
 10
6784.558354089042
 20
21381.00616602238
 30
0.0
 10
6784.155311078212
 20
21380.68115152256
 30
0.0
 10
6783.818566235602
 20
21380.51694621069
 30
0.0
 10
6783.692105288373
 20
21380.45528065075
 30
0.0
 11
6785.577248342062
 21
21383.94788691658
 31
0.0
 11
6784.81128698522
 21
21383.42233210786
 31
0.0
 11
6784.411477766299
 21
21383.03217613468
 31
0.0
 11
6784.276045799339
 21
21382.35553133664
 31
0.0
 11
6784.369155281762
 21
21382.12716370002
 31
0.0
 11
6784.54690981546
 21
21381.82267348607
 31
0.0
 11
6784.70773532246
 21
21381.55201557639
 31
0.0
 11
6784.580767786649
 21
21381.12065449559
 31
0.0
 11
6784.064543300264
 21
21380.64981603078
 31
0.0
 11
6783.692105288373
 21
21380.45528065075
 31
0.0
  0
SPLINE
  5
10DFB
330
1F
100
AcDbEntity
  8
0
370
     5
100
AcDbSpline
210
0.0
220
0.0
230
1.0
 70
     8
 71
     3
 72
    16
 73
    12
 74
     0
 42
0.0000000001
 43
0.0000000001
 40
0.0
 40
0.0
 40
0.0
 40
0.0
 40
14.50316906203068
 40
26.15839375771526
 40
33.51404782586
 40
40.77260337238132
 40
47.87996526066161
 40
53.57380437078887
 40
58.03780981495386
 40
64.26096980462921
 40
75.01831001724628
 40
75.01831001724628
 40
75.01831001724628
 40
75.01831001724628
 10
6786.521712128848
 20
21383.94788691658
 30
0.0
 10
6786.269222927514
 20
21383.7799498007
 30
0.0
 10
6785.813825081719
 20
21383.47705288314
 30
0.0
 10
6785.280196402003
 20
21383.03978719015
 30
0.0
 10
6784.962266164303
 20
21382.53732058679
 30
0.0
 10
6785.138190034572
 20
21382.07708341764
 30
0.0
 10
6785.366312470476
 20
21381.73548743458
 30
0.0
 10
6785.462003465326
 20
21381.37670190114
 30
0.0
 10
6785.382715490448
 20
21381.02539554238
 30
0.0
 10
6785.011365501652
 20
21380.74079174538
 30
0.0
 10
6784.708047693829
 20
21380.56560209243
 30
0.0
 10
6784.515769866678
 20
21380.45528065075
 30
0.0
  0
LINE
  5
10DFC
330
1F
100
AcDbEntity
  8
0
370
     5
100
AcDbLine
 10
6782.351223635147
 20
21381.51778065075
 30
0.0
 11
6782.079214352537
 21
21380.45528065075
 31
0.0
  0
LINE
  5
10DFD
330
1F
100
AcDbEntity
  8
0
370
     5
100
AcDbLine
 10
6782.996380009482
 20
21381.51778065075
 30
0.0
 11
6782.724370726872
 21
21380.45528065075
 31
0.0
  0
LINE
  5
10DFE
330
1F
100
AcDbEntity
  8
0
370
     5
100
AcDbLine
 10
6787.637474629824
 20
21381.51778065075
 30
0.0
 11
6788.411965958833
 21
21381.51778065075
 31
0.0
  0
LINE
  5
10DFF
330
1F
100
AcDbEntity
  8
0
370
     5
100
AcDbLine
 10
6788.08805718528
 20
21382.01778065075
 30
0.0
 11
6788.401612846662
 21
21382.01778065075
 31
0.0
  0
LINE
  5
10E00
330
1F
100
AcDbEntity
  8
0
370
     5
100
AcDbLine
 10
6782.351223635147
 20
21381.51778065075
 30
0.0
 11
6782.996380009482
 21
21381.51778065075
 31
0.0
  0
LINE
  5
10E01
330
1F
100
AcDbEntity
  8
0
370
     5
100
AcDbLine
 10
6782.479228003435
 20
21382.01778065075
 30
0.0
 11
6783.124384377768
 21
21382.01778065075
 31
0.0
  0
LINE
  5
10E02
330
1F
100
AcDbEntity
  8
0
370
     5
100
AcDbLine
 10
6783.692105288373
 20
21380.45528065075
 30
0.0
 11
6784.515769866678
 21
21380.45528065075
 31
0.0
  0
LINE
  5
10E03
330
1F
100
AcDbEntity
  8
0
370
     5
100
AcDbLine
 10
6782.646300909033
 20
21382.67038691659
 30
0.0
 11
6782.479228003435
 21
21382.01778065075
 31
0.0
  0
LINE
  5
10E04
330
1F
100
AcDbEntity
  8
0
370
     5
100
AcDbLine
 10
6783.291457283367
 20
21382.67038691659
 30
0.0
 11
6783.124384377768
 21
21382.01778065075
 31
0.0
  0
SPLINE
  5
10E05
330
1F
100
AcDbEntity
  8
0
370
     5
100
AcDbSpline
210
0.0
220
0.0
230
1.0
 70
     8
 71
     3
 72
    13
 73
     9
 74
     7
 42
0.0000000001
 43
0.0000000001
 44
0.0000000001
 40
0.0
 40
0.0
 40
0.0
 40
0.0
 40
0.3672689040353978
 40
0.6585419028331032
 40
0.8997380250621453
 40
1.098974453493424
 40
1.35888054061097
 40
1.707130457324974
 40
1.707130457324974
 40
1.707130457324974
 40
1.707130457324974
 10
6782.646300909033
 20
21382.67038691659
 30
0.0
 10
6782.680021875838
 20
21382.7872101934
 30
0.0
 10
6782.740486209736
 20
21382.99668347623
 30
0.0
 10
6782.882548505295
 20
21383.2759807598
 30
0.0
 10
6783.124156271916
 20
21383.37984301555
 30
0.0
 10
6783.385936509261
 20
21383.2858119876
 30
0.0
 10
6783.351738533898
 20
21382.96986856579
 30
0.0
 10
6783.31340710616
 20
21382.77943523713
 30
0.0
 10
6783.291457283367
 20
21382.67038691659
 30
0.0
 11
6782.646300909033
 21
21382.67038691659
 31
0.0
 11
6782.76099819092
 21
21383.01928658898
 31
0.0
 11
6782.917909202149
 21
21383.26468197277
 31
0.0
 11
6783.143769347734
 21
21383.34931508695
 31
0.0
 11
6783.327280760976
 21
21383.27173470524
 31
0.0
 11
6783.35318418526
 21
21383.01312266622
 31
0.0
 11
6783.291457283367
 21
21382.67038691659
 31
0.0
  0
SPLINE
  5
10E06
330
1F
100
AcDbEntity
  8
0
370
     5
100
AcDbSpline
210
0.0
220
0.0
230
1.0
 70
     8
 71
     3
 72
    11
 73
     7
 74
     0
 42
0.0000000001
 43
0.0000000001
 40
20.63988049728201
 40
20.63988049728201
 40
20.63988049728201
 40
20.63988049728201
 40
21.03808777402665
 40
33.63611647905815
 40
40.96999540071692
 40
56.0776740399479
 40
56.0776740399479
 40
56.0776740399479
 40
56.0776740399479
 10
6782.001144534698
 20
21382.67038691659
 30
0.0
 10
6782.001144534698
 20
21382.67038691659
 30
0.0
 10
6782.328195695672
 20
21383.94788691658
 30
0.0
 10
6783.644896693097
 20
21384.0969077886
 30
0.0
 10
6784.161331042729
 20
21383.32288691659
 30
0.0
 10
6783.936613657701
 20
21382.67038691659
 30
0.0
 10
6783.936613657701
 20
21382.67038691659
 30
0.0
  0
LINE
  5
10E07
330
1F
100
AcDbEntity
  8
0
370
     5
100
AcDbLine
 10
6783.936613657701
 20
21382.67038691659
 30
0.0
 11
6783.369527101206
 21
21380.45528065075
 31
0.0
  0
LINE
  5
10E08
330
1F
100
AcDbEntity
  8
0
370
     5
100
AcDbLine
 10
6786.164128481321
 20
21383.32288691659
 30
0.0
 11
6787.131863042823
 21
21383.32288691659
 31
0.0
  0
LINE
  5
10E09
330
1F
100
AcDbEntity
  8
0
370
     5
100
AcDbLine
 10
6785.577248342062
 20
21383.94788691658
 30
0.0
 11
6786.521712128848
 21
21383.94788691658
 31
0.0
  0
SPLINE
  5
10E0A
330
1F
100
AcDbEntity
  8
0
370
     5
100
AcDbSpline
210
0.0
220
0.0
230
1.0
 70
     8
 71
     3
 72
    13
 73
     9
 74
     7
 42
0.0000000001
 43
0.0000000001
 44
0.0000000001
 40
0.0
 40
0.0
 40
0.0
 40
0.0
 40
1.164343723622449
 40
1.736226098690059
 40
2.164005493748998
 40
2.605032503068329
 40
3.226180425110112
 40
3.367692169857791
 40
3.367692169857791
 40
3.367692169857791
 40
3.367692169857791
 10
6798.570564636446
 20
21382.64278065074
 30
0.0
 10
6798.20284862459
 20
21382.49654910212
 30
0.0
 10
6797.654524170443
 20
21382.27849405014
 30
0.0
 10
6797.176798430306
 20
21381.71214672255
 30
0.0
 10
6797.072474064771
 20
21381.20142362947
 30
0.0
 10
6797.385786678463
 20
21380.77569095863
 30
0.0
 10
6797.718441230848
 20
21380.53261700365
 30
0.0
 10
6797.964828321777
 20
21380.46738455283
 30
0.0
 10
6798.01054552519
 20
21380.45528065075
 30
0.0
 11
6798.570564636446
 21
21382.64278065074
 31
0.0
 11
6797.541637570414
 21
21382.09779863313
 31
0.0
 11
6797.193519519658
 21
21381.64407705148
 31
0.0
 11
6797.132977182058
 21
21381.22060351489
 31
0.0
 11
6797.360010722012
 21
21380.84250221274
 31
0.0
 11
6797.874620139516
 21
21380.49464895565
 31
0.0
 11
6798.01054552519
 21
21380.45528065075
 31
0.0
  0
LINE
  5
10E0B
330
1F
100
AcDbEntity
  8
0
370
     5
100
AcDbLine
 10
6797.748101055784
 20
21382.64278065074
 30
0.0
 11
6798.570564636446
 21
21382.64278065074
 31
0.0
  0
LINE
  5
10E0C
330
1F
100
AcDbEntity
  8
0
370
     5
100
AcDbLine
 10
6795.268630934268
 20
21380.45528065075
 30
0.0
 11
6795.913787308602
 21
21380.45528065075
 31
0.0
  0
LINE
  5
10E0D
330
1F
100
AcDbEntity
  8
0
370
     5
100
AcDbLine
 10
6794.139607279181
 20
21380.45528065075
 30
0.0
 11
6794.784832616103
 21
21380.45528065075
 31
0.0
  0
SPLINE
  5
10E0E
330
1F
100
AcDbEntity
  8
0
370
     5
100
AcDbSpline
210
0.0
220
0.0
230
1.0
 70
     8
 71
     3
 72
    12
 73
     8
 74
     0
 42
0.0000000001
 43
0.0000000001
 40
1.645102655429758
 40
1.645102655429758
 40
1.645102655429758
 40
1.645102655429758
 40
13.15658532728309
 40
23.22113165979271
 40
31.54398940181197
 40
41.83223506517255
 40
51.3822508792191
 40
51.3822508792191
 40
51.3822508792191
 40
51.3822508792191
 10
6797.748101055784
 20
21382.64278065074
 30
0.0
 10
6797.530505420221
 20
21382.53915244855
 30
0.0
 10
6797.127206285892
 20
21382.33770936789
 30
0.0
 10
6796.662670207547
 20
21381.90874962236
 30
0.0
 10
6796.403606213195
 20
21381.3318463863
 30
0.0
 10
6796.66811491417
 20
21380.7130083281
 30
0.0
 10
6797.052200257315
 20
21380.53903184752
 30
0.0
 10
6797.237096555065
 20
21380.45528065075
 30
0.0
  0
SPLINE
  5
10E0F
330
1F
100
AcDbEntity
  8
0
370
     5
100
AcDbSpline
210
0.0
220
0.0
230
1.0
 70
     8
 71
     3
 72
    11
 73
     7
 74
     5
 42
0.0000000001
 43
0.0000000001
 44
0.0000000001
 40
0.0
 40
0.0
 40
0.0
 40
0.0
 40
0.2382164435723715
 40
0.5421434355594128
 40
0.7320169128103402
 40
1.018337154452609
 40
1.018337154452609
 40
1.018337154452609
 40
1.018337154452609
 10
6795.130669991867
 20
21381.80459853534
 30
0.0
 10
6795.149861118083
 20
21381.88124337145
 30
0.0
 10
6795.19353712526
 20
21382.05567505277
 30
0.0
 10
6795.403791669889
 20
21382.25433342073
 30
0.0
 10
6795.707875102333
 20
21382.14346100527
 30
0.0
 10
6795.657001630478
 20
21381.96195378348
 30
0.0
 10
6795.626413018792
 20
21381.85281922428
 30
0.0
 11
6795.130669991867
 21
21381.80459853534
 31
0.0
 11
6795.20987530816
 21
21382.02926182086
 31
0.0
 11
6795.455736714586
 21
21382.20793410547
 31
0.0
 11
6795.632682426871
 21
21382.13907081868
 31
0.0
 11
6795.626413018792
 21
21381.85281922428
 31
0.0
  0
SPLINE
  5
10E10
330
1F
100
AcDbEntity
  8
0
370
     5
100
AcDbSpline
210
0.0
220
0.0
230
1.0
 70
     8
 71
     3
 72
    11
 73
     7
 74
     5
 42
0.0000000001
 43
0.0000000001
 44
0.0000000001
 40
0.0
 40
0.0
 40
0.0
 40
0.0
 40
1.025633291463324
 40
1.944944168339278
 40
2.493855558883582
 40
3.15764050001827
 40
3.15764050001827
 40
3.15764050001827
 40
3.15764050001827
 10
6794.411197351964
 20
21381.51614316824
 30
0.0
 10
6794.49981941289
 20
21381.88284167227
 30
0.0
 10
6794.667876516747
 20
21382.57822483008
 30
0.0
 10
6795.609522753501
 20
21382.70484137481
 30
0.0
 10
6796.377309116429
 20
21382.40373628425
 30
0.0
 10
6796.283328100634
 20
21381.94752556227
 30
0.0
 10
6796.231886382368
 20
21381.69781275344
 30
0.0
 11
6794.411197351964
 21
21381.51614316824
 31
0.0
 11
6794.834547979052
 21
21382.45032617766
 31
0.0
 11
6795.739328735701
 21
21382.61312750057
 31
0.0
 11
6796.227210057835
 21
21382.36158122216
 31
0.0
 11
6796.231886382368
 21
21381.69781275344
 31
0.0
  0
LINE
  5
10E11
330
1F
100
AcDbEntity
  8
0
370
     5
100
AcDbLine
 10
6796.231886382368
 20
21381.69781275344
 30
0.0
 11
6795.913787308602
 21
21380.45528065075
 31
0.0
  0
LINE
  5
10E12
330
1F
100
AcDbEntity
  8
0
370
     5
100
AcDbLine
 10
6795.626413018792
 20
21381.85281922428
 30
0.0
 11
6795.268630934268
 21
21380.45528065075
 31
0.0
  0
LINE
  5
10E13
330
1F
100
AcDbEntity
  8
0
370
     5
100
AcDbLine
 10
6795.130669991867
 20
21381.80459853534
 30
0.0
 11
6794.784832616103
 21
21380.45528065075
 31
0.0
  0
LINE
  5
10E14
330
1F
100
AcDbEntity
  8
0
370
     5
100
AcDbLine
 10
6794.411197351964
 20
21381.51614316824
 30
0.0
 11
6794.139607279181
 21
21380.45528065075
 31
0.0
  0
LINE
  5
10E15
330
1F
100
AcDbEntity
  8
0
370
     5
100
AcDbLine
 10
6794.711166809484
 20
21383.94788691658
 30
0.0
 11
6793.817029092015
 21
21380.45528065075
 31
0.0
  0
LINE
  5
10E16
330
1F
100
AcDbEntity
  8
0
370
     5
100
AcDbLine
 10
6794.066010435151
 20
21383.94788691658
 30
0.0
 11
6793.17187271768
 21
21380.45528065075
 31
0.0
  0
LINE
  5
10E17
330
1F
100
AcDbEntity
  8
0
370
     5
100
AcDbLine
 10
6794.066010435151
 20
21383.94788691658
 30
0.0
 11
6794.711166809484
 21
21383.94788691658
 31
0.0
  0
LINE
  5
10E18
330
1F
100
AcDbEntity
  8
0
370
     5
100
AcDbLine
 10
6793.17187271768
 20
21380.45528065075
 30
0.0
 11
6793.817029092015
 21
21380.45528065075
 31
0.0
  0
LINE
  5
10E19
330
1F
100
AcDbEntity
  8
0
370
     5
100
AcDbLine
 10
6791.558981782357
 20
21380.45528065843
 30
0.0
 11
6792.204138156691
 21
21380.45528065075
 31
0.0
  0
LINE
  5
10E1A
330
1F
100
AcDbEntity
  8
0
370
     5
100
AcDbLine
 10
6792.432373070575
 20
21381.34679286594
 30
0.0
 11
6792.204138156691
 21
21380.45528065075
 31
0.0
  0
LINE
  5
10E1B
330
1F
100
AcDbEntity
  8
0
370
     5
100
AcDbLine
 10
6791.741618863465
 20
21381.16868241007
 30
0.0
 11
6791.558981782357
 21
21380.45528065843
 31
0.0
  0
LINE
  5
10E1C
330
1F
100
AcDbEntity
  8
0
370
     5
100
AcDbLine
 10
6791.185834690631
 20
21381.51778065843
 30
0.0
 11
6790.91382540802
 21
21380.45528065843
 31
0.0
  0
LINE
  5
10E1D
330
1F
100
AcDbEntity
  8
0
370
     5
100
AcDbLine
 10
6790.268669033686
 20
21380.45528065843
 30
0.0
 11
6790.91382540802
 21
21380.45528065843
 31
0.0
  0
SPLINE
  5
10E1E
330
1F
100
AcDbEntity
  8
0
370
     5
100
AcDbSpline
210
0.0
220
0.0
230
1.0
 70
     8
 71
     3
 72
     9
 73
     5
 74
     0
 42
0.0000000001
 43
0.0000000001
 40
11.28374735643573
 40
11.28374735643573
 40
11.28374735643573
 40
11.28374735643573
 40
19.24875081026834
 40
24.90900566825834
 40
24.90900566825834
 40
24.90900566825834
 40
24.90900566825834
 10
6792.010813759983
 20
21381.86538387641
 30
0.0
 10
6792.178540989083
 20
21381.80552490475
 30
0.0
 10
6792.439192313032
 20
21381.64972509689
 30
0.0
 10
6792.447300829883
 20
21381.43501208527
 30
0.0
 10
6792.432373070575
 20
21381.34679286594
 30
0.0
  0
SPLINE
  5
10E1F
330
1F
100
AcDbEntity
  8
0
370
     5
100
AcDbSpline
210
0.0
220
0.0
230
1.0
 70
     8
 71
     3
 72
     9
 73
     5
 74
     0
 42
0.0000000001
 43
0.0000000001
 40
0.0
 40
0.0
 40
0.0
 40
0.0
 40
6.006996181324775
 40
11.35988105465453
 40
11.35988105465453
 40
11.35988105465453
 40
11.35988105465453
 10
6791.185834690631
 20
21381.51778065843
 30
0.0
 10
6791.31038040435
 20
21381.52519024461
 30
0.0
 10
6791.57503239246
 20
21381.49121776248
 30
0.0
 10
6791.767610469064
 20
21381.29473512023
 30
0.0
 10
6791.741618863465
 20
21381.16868241007
 30
0.0
  0
SPLINE
  5
10E20
330
1F
100
AcDbEntity
  8
0
370
     5
100
AcDbSpline
210
0.0
220
0.0
230
1.0
 70
     8
 71
     3
 72
    11
 73
     7
 74
     5
 42
0.0000000001
 43
0.0000000001
 44
0.0000000001
 40
0.0
 40
0.0
 40
0.0
 40
0.0
 40
0.4161877899725521
 40
0.81308652069516
 40
1.390747319608189
 40
1.828733096005695
 40
1.828733096005695
 40
1.828733096005695
 40
1.828733096005695
 10
6791.647957665133
 20
21383.32288692426
 30
0.0
 10
6791.777568775947
 20
21383.25629884726
 30
0.0
 10
6792.03078391026
 20
21383.12620885146
 30
0.0
 10
6792.112631307723
 20
21382.59585303005
 30
0.0
 10
6791.739762658625
 20
21382.23152334365
 30
0.0
 10
6791.443644935845
 20
21382.07559678793
 30
0.0
 10
6791.315947610939
 20
21382.00835527379
 30
0.0
 11
6791.647957665133
 21
21383.32288692426
 31
0.0
 11
6791.982985185608
 21
21383.07596823918
 31
0.0
 11
6792.04981220508
 21
21382.68473588888
 31
0.0
 11
6791.693829143909
 21
21382.22979846597
 31
0.0
 11
6791.315947610939
 21
21382.00835527379
 31
0.0
  0
SPLINE
  5
10E21
330
1F
100
AcDbEntity
  8
0
370
     5
100
AcDbSpline
210
0.0
220
0.0
230
1.0
 70
     8
 71
     3
 72
    11
 73
     7
 74
     0
 42
0.0000000001
 43
0.0000000001
 40
0.0
 40
0.0
 40
0.0
 40
0.0
 40
9.99542598367776
 40
30.46384601694259
 40
43.85507980794651
 40
54.52778084958222
 40
54.52778084958222
 40
54.52778084958222
 40
54.52778084958222
 10
6791.162806751157
 20
21383.94788692427
 30
0.0
 10
6791.391695587261
 20
21383.94546047898
 30
0.0
 10
6792.699581163998
 20
21383.78194231683
 30
0.0
 10
6792.89179710301
 20
21382.72552832661
 30
0.0
 10
6792.553681288947
 20
21382.21245514323
 30
0.0
 10
6792.219467657488
 20
21381.95376658252
 30
0.0
 10
6792.010813759983
 20
21381.86538387641
 30
0.0
  0
LINE
  5
10E22
330
1F
100
AcDbEntity
  8
0
370
     5
100
AcDbLine
 10
6791.647957665133
 20
21383.32288692426
 30
0.0
 11
6791.313839058919
 21
21382.01778065842
 31
0.0
  0
LINE
  5
10E23
330
1F
100
AcDbEntity
  8
0
370
     5
100
AcDbLine
 10
6791.162806751157
 20
21383.94788692427
 30
0.0
 11
6790.268669033686
 21
21380.45528065843
 31
0.0
  0
LINE
  5
10E24
330
1F
100
AcDbEntity
  8
0
370
     5
100
AcDbLine
 10
6797.237096555065
 20
21380.45528065075
 30
0.0
 11
6798.01054552519
 21
21380.45528065075
 31
0.0
  0
ELLIPSE
  5
10E25
330
1F
100
AcDbEntity
  8
0
370
     5
100
AcDbEllipse
 10
6798.764889628436
 20
21380.80153185312
 30
0.0
 11
-0.2474730933309162
 21
-0.2820067641118944
 31
0.0
210
0.0
220
0.0
230
1.0
 40
0.8122638817359604
 41
0.0
 42
6.283185307179586
  0
SPLINE
  5
1618E
330
1F
100
AcDbEntity
  8
sen1
 62
     0
100
AcDbSpline
210
0.0
220
0.0
230
1.0
 70
     8
 71
     3
 72
     9
 73
     5
 74
     0
 42
0.0000000001
 43
0.0000000001
 40
0.0
 40
0.0
 40
0.0
 40
0.0
 40
245.2264259821901
 40
399.9600753192478
 40
399.9600753192478
 40
399.9600753192478
 40
399.9600753192478
 10
4372.786020879758
 20
20009.07274056208
 30
0.0
 10
4297.521599671614
 20
20096.35929064836
 30
0.0
 10
3922.452627936957
 20
20238.72214981834
 30
0.0
 10
3647.735567295954
 20
20083.52661715895
 30
0.0
 10
3501.660408891022
 20
20013.6062394219
 30
0.0
  0
SPLINE
  5
1618F
330
1F
100
AcDbEntity
  8
sen1
 62
     0
100
AcDbSpline
210
0.0
220
0.0
230
1.0
 70
     8
 71
     3
 72
    24
 73
    20
 74
     0
 42
0.0000000001
 43
0.0000000001
 40
0.0
 40
0.0
 40
0.0
 40
0.0
 40
21.79518321658946
 40
21.79518321658946
 40
68.14139334691684
 40
68.14139334691684
 40
114.4876034772442
 40
114.4876034772442
 40
201.3823803007771
 40
201.3823803007771
 40
215.7483866600037
 40
215.7483866600037
 40
244.4803993784571
 40
244.4803993784571
 40
297.5188165187589
 40
297.5188165187589
 40
350.5572336590606
 40
350.5572336590606
 40
399.9600753192478
 40
399.9600753192478
 40
399.9600753192478
 40
399.9600753192478
 10
4371.650017905941
 20
20008.09320126043
 30
0.0
 10
4365.019681389744
 20
20015.78261401509
 30
0.0
 10
4357.162383255075
 20
20023.48942773641
 30
0.0
 10
4329.183628027352
 20
20047.36702589925
 30
0.0
 10
4305.218189532865
 20
20063.2909839002
 30
0.0
 10
4250.039123259018
 20
20092.93845028599
 30
0.0
 10
4218.82550743569
 20
20106.66398400763
 30
0.0
 10
4122.427950120303
 20
20140.77474867213
 30
0.0
 10
4051.415233770225
 20
20156.47850147089
 30
0.0
 10
3969.19226965223
 20
20161.36049053246
 30
0.0
 10
3957.53962185998
 20
20161.73850108513
 30
0.0
 10
3922.73559481372
 20
20161.8617908673
 30
0.0
 10
3899.738171078095
 20
20160.59624801071
 30
0.0
 10
3835.756610939453
 20
20152.65338956098
 30
0.0
 10
3796.035070934147
 20
20142.26601707758
 30
0.0
 10
3715.700453012917
 20
20113.76861799441
 30
0.0
 10
3675.089389098626
 20
20095.65801781216
 30
0.0
 10
3591.544403883059
 20
20055.90173634682
 30
0.0
 10
3548.961125987684
 20
20034.58423206109
 30
0.0
 10
3502.308031915602
 20
20012.25324850617
 30
0.0
  0
SPLINE
  5
16190
330
1F
100
AcDbEntity
  8
sen1
 62
     0
100
AcDbSpline
210
0.0
220
0.0
230
1.0
 70
     8
 71
     3
 72
    24
 73
    20
 74
     0
 42
0.0000000001
 43
0.0000000001
 40
0.0
 40
0.0
 40
0.0
 40
0.0
 40
21.79518321658946
 40
21.79518321658946
 40
68.14139334691684
 40
68.14139334691684
 40
114.4876034772442
 40
114.4876034772442
 40
201.3823803007771
 40
201.3823803007771
 40
215.7483866600037
 40
215.7483866600037
 40
244.4803993784571
 40
244.4803993784571
 40
297.5188165187589
 40
297.5188165187589
 40
350.5572336590606
 40
350.5572336590606
 40
399.9600753192478
 40
399.9600753192478
 40
399.9600753192478
 40
399.9600753192478
 10
4401.922023853582
 20
20008.09320126043
 30
0.0
 10
4408.552360369779
 20
20015.78261401509
 30
0.0
 10
4416.409658504448
 20
20023.48942773641
 30
0.0
 10
4444.388413732172
 20
20047.36702589925
 30
0.0
 10
4468.353852226658
 20
20063.2909839002
 30
0.0
 10
4523.532918500506
 20
20092.93845028599
 30
0.0
 10
4554.746534323833
 20
20106.66398400763
 30
0.0
 10
4651.14409163922
 20
20140.77474867213
 30
0.0
 10
4722.156807989299
 20
20156.47850147089
 30
0.0
 10
4804.379772107293
 20
20161.36049053246
 30
0.0
 10
4816.032419899543
 20
20161.73850108513
 30
0.0
 10
4850.836446945804
 20
20161.8617908673
 30
0.0
 10
4873.833870681428
 20
20160.59624801071
 30
0.0
 10
4937.815430820071
 20
20152.65338956098
 30
0.0
 10
4977.536970825377
 20
20142.26601707758
 30
0.0
 10
5057.871588746606
 20
20113.76861799441
 30
0.0
 10
5098.482652660897
 20
20095.65801781216
 30
0.0
 10
5182.027637876465
 20
20055.90173634682
 30
0.0
 10
5224.61091577184
 20
20034.58423206109
 30
0.0
 10
5271.264009843921
 20
20012.25324850617
 30
0.0
  0
SPLINE
  5
16191
330
1F
100
AcDbEntity
  8
sen1
 62
     0
100
AcDbSpline
210
0.0
220
0.0
230
1.0
 70
     8
 71
     3
 72
     9
 73
     5
 74
     0
 42
0.0000000001
 43
0.0000000001
 40
0.0
 40
0.0
 40
0.0
 40
0.0
 40
245.2264259821901
 40
399.9600753192478
 40
399.9600753192478
 40
399.9600753192478
 40
399.9600753192478
 10
4400.786020879766
 20
20009.07274056208
 30
0.0
 10
4476.050442087911
 20
20096.35929064836
 30
0.0
 10
4851.119413822567
 20
20238.72214981834
 30
0.0
 10
5125.83647446357
 20
20083.52661715895
 30
0.0
 10
5271.911632868502
 20
20013.6062394219
 30
0.0
  0
ARC
  5
16192
330
1F
100
AcDbEntity
  8
sen1
 62
     0
100
AcDbCircle
 10
5004.173805152599
 20
18971.61965027263
 30
0.0
 40
1192.94712158934
100
AcDbArc
 50
60.62105246633247
 51
119.5790630861373
  0
ARC
  5
16193
330
1F
100
AcDbEntity
  8
sen1
 62
     0
100
AcDbCircle
 10
4902.399899777958
 20
19302.12356740566
 30
0.0
 40
859.4395478939752
100
AcDbArc
 50
55.76676616195452
 51
124.8018218195674
  0
ARC
  5
16194
330
1F
100
AcDbEntity
  8
sen1
 62
     0
100
AcDbCircle
 10
5003.663598751842
 20
18973.54426796285
 30
0.0
 40
1189.521592274367
100
AcDbArc
 50
60.54566017137211
 51
119.6036219029761
  0
ARC
  5
16195
330
1F
100
AcDbEntity
  8
sen1
 62
     0
100
AcDbCircle
 10
4902.825449088161
 20
19300.78174681301
 30
0.0
 40
862.284315674047
100
AcDbArc
 50
55.81860403866563
 51
124.7735727781947
  0
DIMENSION
  5
16196
330
1F
100
AcDbEntity
  8
sen1
 62
     0
100
AcDbDimension
  2
*D16
 10
3166.786020879762
 20
20431.88898997006
 30
0.0
 11
4386.786020879762
 21
20438.88898997006
 31
0.0
 70
    32
 71
     5
 42
2440.0
  3
ISO-25
100
AcDbAlignedDimension
 13
5606.786020879762
 23
20372.53251491851
 33
0.0
 14
3166.786020879762
 24
20372.5325149185
 34
0.0
100
AcDbRotatedDimension
1001
ACAD
1000
DSTYLE
1002
{
1070
    41
1040
1.0
1070
    42
1040
5.0
1070
    43
1040
5.0
1070
    44
1040
5.0
1070
    46
1040
1.0
1070
    77
1070
     2
1070
   140
1040
10.0
1070
   147
1040
2.0
1070
   174
1070
     1
1070
   176
1070
     5
1070
   177
1070
     5
1070
   271
1070
     4
1070
   272
1070
     4
1070
   276
1070
     2
1070
   341
1005
1877
1070
   342
1005
1877
1002
}
  0
ARC
  5
16197
330
1F
100
AcDbEntity
  8
sen1
 62
     0
100
AcDbCircle
 10
3871.172141981566
 20
19302.12356740566
 30
0.0
 40
859.4395478939752
100
AcDbArc
 50
55.1981781804325
 51
124.2332338380454
  0
ARC
  5
16198
330
1F
100
AcDbEntity
  8
sen1
 62
     0
100
AcDbCircle
 10
3870.746592671363
 20
19300.78174681301
 30
0.0
 40
862.284315674047
100
AcDbArc
 50
55.22642722180528
 51
124.1813959613343
  0
ARC
  5
16199
330
1F
100
AcDbEntity
  8
sen1
 62
     0
100
AcDbCircle
 10
3769.908443007681
 20
18973.54426796285
 30
0.0
 40
1189.521592274367
100
AcDbArc
 50
60.39637809702385
 51
119.4543398286278
  0
ARC
  5
1619A
330
1F
100
AcDbEntity
  8
sen1
 62
     0
100
AcDbCircle
 10
3769.398236606924
 20
18971.61965027263
 30
0.0
 40
1192.94712158934
100
AcDbArc
 50
60.42093691386265
 51
119.3789475336675
  0
LINE
  5
1619B
330
1F
100
AcDbEntity
  8
sen1
 62
     0
100
AcDbLine
 10
3184.157935731831
 20
20011.14676638837
 30
0.0
 11
3169.450785163905
 21
20007.74559859084
 31
0.0
  0
LINE
  5
1619C
330
1F
100
AcDbEntity
  8
sen1
 62
     0
100
AcDbLine
 10
3169.450785163903
 20
20007.74559859084
 30
0.0
 11
3173.431383775073
 21
19999.6737441139
 31
0.0
  0
ARC
  5
1619D
330
1F
100
AcDbEntity
  8
sen1
 62
     0
100
AcDbCircle
 10
3171.441084469494
 20
20003.70967135237
 30
0.0
 40
4.5
100
AcDbArc
 50
116.2500028335612
 51
296.2500028335144
  0
LINE
  5
1619E
330
1F
100
AcDbEntity
  8
sen1
100
AcDbLine
 10
3184.985228741081
 20
20009.31762729344
 30
0.0
 11
3184.157935731831
 21
20011.14676638837
 31
0.0
  0
LINE
  5
1619F
330
1F
100
AcDbEntity
  8
sen1
 62
     0
100
AcDbLine
 10
3184.985228741081
 20
20009.31762729344
 30
0.0
 11
3173.431383775073
 21
19999.6737441139
 31
0.0
  0
LINE
  5
161A0
330
1F
100
AcDbEntity
  8
sen1
 62
     0
100
AcDbLine
 10
3501.660408891022
 20
20013.6062394219
 30
0.0
 11
3486.987461974539
 21
20008.53626616889
 31
0.0
  0
ARC
  5
161A1
330
1F
100
AcDbEntity
  8
sen1
 62
     0
100
AcDbCircle
 10
3489.782926423936
 20
20004.39074104991
 30
0.0
 40
5.0
100
AcDbArc
 50
123.9930882221409
 51
303.9930882221193
  0
LINE
  5
161A2
330
1F
100
AcDbEntity
  8
sen1
 62
     0
100
AcDbLine
 10
3486.987461974538
 20
20008.5362661689
 30
0.0
 11
3492.578390873336
 21
20000.24521593092
 31
0.0
  0
ARC
  5
161A3
330
1F
100
AcDbEntity
  8
sen1
 62
     0
100
AcDbCircle
 10
3376.223154663706
 20
20003.56285816398
 30
0.0
 40
4.5
100
AcDbArc
 50
132.3688438824568
 51
312.3688438821816
  0
LINE
  5
161A4
330
1F
100
AcDbEntity
  8
sen1
 62
     0
100
AcDbLine
 10
3373.190601365202
 20
20006.8875567205
 30
0.0
 11
3379.255707962218
 21
20000.23815960746
 31
0.0
  0
LINE
  5
161A5
330
1F
100
AcDbEntity
  8
sen1
 62
     0
100
AcDbLine
 10
3386.302507722168
 20
20014.11769124256
 30
0.0
 11
3373.190601365203
 21
20006.88755672049
 31
0.0
  0
LINE
  5
161A6
330
1F
100
AcDbEntity
  8
sen1
100
AcDbLine
 10
3386.302507722165
 20
20014.11769124255
 30
0.0
 11
3387.683231832536
 21
20012.66899892085
 31
0.0
  0
LINE
  5
161A7
330
1F
100
AcDbEntity
  8
sen1
 62
     0
100
AcDbLine
 10
3387.683231832534
 20
20012.66899892085
 30
0.0
 11
3379.255707962218
 21
20000.23815960746
 31
0.0
  0
LINE
  5
161A8
330
1F
100
AcDbEntity
  8
sen1
 62
     0
100
AcDbLine
 10
3502.778594670778
 20
20011.94802937431
 30
0.0
 11
3492.578390873336
 21
20000.24521593092
 31
0.0
  0
LINE
  5
161A9
330
1F
100
AcDbEntity
  8
sen1
 62
     0
100
AcDbLine
 10
3501.660408891022
 20
20013.6062394219
 30
0.0
 11
3502.778594670778
 21
20011.94802937431
 31
0.0
  0
CIRCLE
  5
161AA
330
1F
100
AcDbEntity
  8
moji
 62
     0
100
AcDbCircle
 10
4386.786020879762
 20
19846.0727361634
 30
0.0
 40
38.0
  0
DIMENSION
  5
161AB
330
1F
100
AcDbEntity
  8
moji
 62
     0
100
AcDbDimension
  2
*D17
 10
4348.786020879765
 20
19761.64890872156
 30
0.0
 11
4386.786020879766
 21
19761.64890872156
 31
0.0
 70
   160
 71
     5
 42
76.0
  3
ISO-25
100
AcDbAlignedDimension
 13
4424.786020879765
 23
19899.07274056208
 33
0.0
 14
4348.786020879765
 24
19899.07274056208
 34
0.0
100
AcDbRotatedDimension
1001
ACAD
1000
DSTYLE
1002
{
1070
    41
1040
1.0
1070
    42
1040
5.0
1070
    43
1040
5.0
1070
    44
1040
5.0
1070
    46
1040
1.0
1070
   140
1040
10.0
1070
   147
1040
2.0
1070
   174
1070
     1
1070
   176
1070
     5
1070
   177
1070
     5
1070
   271
1070
     4
1070
   272
1070
     4
1070
   276
1070
     2
1070
   341
1005
1877
1070
   342
1005
1877
1002
}
  0
DIMENSION
  5
161AC
330
1F
100
AcDbEntity
  8
moji
 62
     0
100
AcDbDimension
  2
*D18
 10
4334.36875616594
 20
19850.35509593505
 30
0.0
 11
4339.465265620986
 21
19859.18250925464
 31
0.0
 70
   161
 71
     5
 42
45.00000000840009
  3
ISO-25
100
AcDbAlignedDimension
 13
4386.786020879763
 23
19872.0534982834
 33
0.0
 14
4364.286020879762
 24
19833.0823551034
 34
0.0
1001
ACAD
1000
DSTYLE
1002
{
1070
    41
1040
1.0
1070
    42
1040
5.0
1070
    43
1040
5.0
1070
    44
1040
5.0
1070
    46
1040
1.0
1070
   140
1040
10.0
1070
   147
1040
2.0
1070
   174
1070
     1
1070
   176
1070
     5
1070
   177
1070
     5
1070
   271
1070
     4
1070
   272
1070
     4
1070
   276
1070
     2
1070
   341
1005
1877
1070
   342
1005
1877
1002
}
  0
LINE
  5
161AD
330
1F
100
AcDbEntity
  8
center
 62
     0
370
    13
100
AcDbLine
 10
4386.786020879762
 20
20372.5325149185
 30
0.0
 11
4386.786020879763
 21
19682.01340936562
 31
0.0
  0
DIMENSION
  5
161AE
330
1F
100
AcDbEntity
  8
moji
 62
     0
100
AcDbDimension
  2
*D19
 10
4409.286020879761
 20
19785.53529287179
 30
0.0
 11
4386.786020879762
 21
19785.53529287179
 31
0.0
 70
   160
 71
     5
 42
45.0
  3
ISO-25
100
AcDbAlignedDimension
 13
4364.286020879762
 23
19833.0823551034
 33
0.0
 14
4409.286020879761
 24
19833.0823551034
 34
0.0
100
AcDbRotatedDimension
1001
ACAD
1000
DSTYLE
1002
{
1070
    41
1040
1.0
1070
    42
1040
5.0
1070
    43
1040
5.0
1070
    44
1040
5.0
1070
    46
1040
1.0
1070
   140
1040
10.0
1070
   147
1040
2.0
1070
   174
1070
     1
1070
   176
1070
     5
1070
   177
1070
     5
1070
   271
1070
     4
1070
   272
1070
     4
1070
   276
1070
     2
1070
   341
1005
1877
1070
   342
1005
1877
1002
}
  0
CIRCLE
  5
161AF
330
1F
100
AcDbEntity
  8
moji
 62
     0
100
AcDbCircle
 10
4364.286020879762
 20
19833.0823551034
 30
0.0
 40
5.0
  0
CIRCLE
  5
161B0
330
1F
100
AcDbEntity
  8
moji
 62
     0
100
AcDbCircle
 10
4364.286020879762
 20
19833.0823551034
 30
0.0
 40
6.5
  0
CIRCLE
  5
161B1
330
1F
100
AcDbEntity
  8
moji
 62
     0
100
AcDbCircle
 10
4386.786020879762
 20
19846.0727361634
 30
0.0
 40
2.5
  0
CIRCLE
  5
161B2
330
1F
100
AcDbEntity
  8
moji
 62
     0
100
AcDbCircle
 10
4409.286020879761
 20
19833.0823551034
 30
0.0
 40
5.0
  0
CIRCLE
  5
161B3
330
1F
100
AcDbEntity
  8
moji
 62
     0
100
AcDbCircle
 10
4409.286020879761
 20
19833.0823551034
 30
0.0
 40
6.5
  0
CIRCLE
  5
161B4
330
1F
100
AcDbEntity
  8
moji
 62
     0
100
AcDbCircle
 10
4386.786020879762
 20
19846.0727361634
 30
0.0
 40
11.1
  0
CIRCLE
  5
161B5
330
1F
100
AcDbEntity
  8
sen1
 62
     0
370
    13
100
AcDbCircle
 10
4386.786020879763
 20
20311.21177105497
 30
0.0
 40
28.0
  0
CIRCLE
  5
161B6
330
1F
100
AcDbEntity
  8
sen1
 62
     0
370
    13
100
AcDbCircle
 10
4386.786020879763
 20
20311.21177105497
 30
0.0
 40
26.0
  0
LINE
  5
161B7
330
1F
100
AcDbEntity
  8
sen1
 62
     0
370
    13
100
AcDbLine
 10
4360.786020879763
 20
20311.71177105497
 30
0.0
 11
4378.009165320906
 21
20311.71177105497
 31
0.0
  0
LINE
  5
161B8
330
1F
100
AcDbEntity
  8
sen1
 62
     0
370
    13
100
AcDbLine
 10
4360.786020879763
 20
20310.71177105497
 30
0.0
 11
4378.009165320906
 21
20310.71177105497
 31
0.0
  0
DIMENSION
  5
161B9
330
1F
100
AcDbEntity
  8
sen1
 62
     0
100
AcDbDimension
  2
*D20
 10
4358.786020879763
 20
20346.87214298673
 30
0.0
 11
4386.786020879762
 21
20346.87214298673
 31
0.0
 70
   160
 71
     5
 42
55.99999999999818
  3
ISO-25
100
AcDbAlignedDimension
 13
4414.786020879762
 23
20311.21177105497
 33
0.0
 14
4358.786020879763
 24
20311.21177105497
 34
0.0
100
AcDbRotatedDimension
1001
ACAD
1000
DSTYLE
1002
{
1070
    41
1040
1.0
1070
    42
1040
5.0
1070
    43
1040
5.0
1070
    44
1040
5.0
1070
    46
1040
1.0
1070
    77
1070
     2
1070
   140
1040
10.0
1070
   147
1040
2.0
1070
   174
1070
     1
1070
   176
1070
     5
1070
   177
1070
     5
1070
   271
1070
     4
1070
   272
1070
     4
1070
   276
1070
     2
1070
   341
1005
1877
1070
   342
1005
1877
1002
}
  0
LINE
  5
161BA
330
1F
100
AcDbEntity
  8
sen1
 62
     0
100
AcDbLine
 10
4348.786020879765
 20
19899.07274056208
 30
0.0
 11
4424.786020879765
 21
19899.07274056208
 31
0.0
  0
LINE
  5
161BB
330
1F
100
AcDbEntity
  8
sen1
 62
     0
100
AcDbLine
 10
4351.786020879766
 20
19905.57274056208
 30
0.0
 11
4421.786020879766
 21
19905.57274056208
 31
0.0
  0
LINE
  5
161BC
330
1F
100
AcDbEntity
  8
sen1
 62
     0
100
AcDbLine
 10
4375.68602087976
 20
19928.57274056208
 30
0.0
 11
4361.936020879763
 21
19905.57274056208
 31
0.0
  0
ARC
  5
161BD
330
1F
100
AcDbEntity
  8
sen1
 62
     0
100
AcDbCircle
 10
4365.686020879762
 20
19915.57274056208
 30
0.0
 40
10.0
100
AcDbArc
 50
270.0
 51
0.0
  0
LINE
  5
161BE
330
1F
100
AcDbEntity
  8
sen1
 62
     0
100
AcDbLine
 10
4358.786020879765
 20
19990.57274056208
 30
0.0
 11
4414.786020879762
 21
19990.57274056208
 31
0.0
  0
LINE
  5
161BF
330
1F
100
AcDbEntity
  8
sen1
 62
     0
100
AcDbLine
 10
4358.786020879762
 20
20007.07274056208
 30
0.0
 11
4381.84421024208
 21
20007.07274056208
 31
0.0
  0
LINE
  5
161C0
330
1F
100
AcDbEntity
  8
sen1
 62
     0
100
AcDbLine
 10
4360.786020879761
 20
19990.57274056208
 30
0.0
 11
4378.786020879761
 21
19973.57274056208
 31
0.0
  0
LINE
  5
161C1
330
1F
100
AcDbEntity
  8
sen1
 62
     0
100
AcDbLine
 10
4372.437238200364
 20
19990.57274056208
 30
0.0
 11
4378.786020879766
 21
19984.57666803154
 31
0.0
  0
LINE
  5
161C2
330
1F
100
AcDbEntity
  8
sen1
 62
     0
100
AcDbLine
 10
4372.786020879758
 20
20009.07274056208
 30
0.0
 11
4382.269235213154
 21
20009.07274056208
 31
0.0
  0
LINE
  5
161C3
330
1F
100
AcDbEntity
  8
sen1
 62
     0
100
AcDbLine
 10
4348.786020879765
 20
19902.57274056208
 30
0.0
 11
4348.786020879765
 21
19899.07274056208
 31
0.0
  0
ARC
  5
161C4
330
1F
100
AcDbEntity
  8
sen1
 62
     0
100
AcDbCircle
 10
4351.786020879763
 20
19902.57274056208
 30
0.0
 40
3.0
100
AcDbArc
 50
90.0
 51
180.0
  0
LINE
  5
161C5
330
1F
100
AcDbEntity
  8
sen1
 62
     0
100
AcDbLine
 10
4358.786020879762
 20
20009.07274056208
 30
0.0
 11
4360.351940906771
 21
20009.07274056208
 31
0.0
  0
LINE
  5
161C6
330
1F
100
AcDbEntity
  8
sen1
 62
     0
100
AcDbLine
 10
4358.786020879762
 20
20009.07274056208
 30
0.0
 11
4358.786020879762
 21
19990.57274056208
 31
0.0
  0
ARC
  5
161C7
330
1F
100
AcDbEntity
  8
sen1
 62
     0
100
AcDbCircle
 10
4358.807987396948
 20
20008.57274056208
 30
0.0
 40
1.5
100
AcDbArc
 50
211.4496395081922
 51
270.0
  0
ARC
  5
161C8
330
1F
100
AcDbEntity
  8
sen1
 62
     0
100
AcDbCircle
 10
4361.444625240282
 20
20008.16544056208
 30
0.0
 40
1.092684333513716
100
AcDbArc
 50
180.0
 51
0.0
  0
LINE
  5
161C9
330
1F
100
AcDbEntity
  8
sen1
 62
     0
100
AcDbLine
 10
4360.351940906771
 20
20009.07274056208
 30
0.0
 11
4360.351940906771
 21
20008.16544056208
 31
0.0
  0
LINE
  5
161CA
330
1F
100
AcDbEntity
  8
sen1
 62
     0
100
AcDbLine
 10
4362.537309573797
 20
20009.07274056208
 30
0.0
 11
4362.537309573797
 21
20008.16544056208
 31
0.0
  0
LINE
  5
161CB
330
1F
100
AcDbEntity
  8
sen1
 62
     0
100
AcDbLine
 10
4370.566096663574
 20
20009.07274056208
 30
0.0
 11
4370.566096663574
 21
20008.16544056208
 31
0.0
  0
LINE
  5
161CC
330
1F
100
AcDbEntity
  8
sen1
 62
     0
100
AcDbLine
 10
4372.786020879758
 20
20009.07274056208
 30
0.0
 11
4372.786020879758
 21
20008.16544056208
 31
0.0
  0
ARC
  5
161CD
330
1F
100
AcDbEntity
  8
sen1
 62
     0
100
AcDbCircle
 10
4371.676058771668
 20
20008.16544056208
 30
0.0
 40
1.109962108092076
100
AcDbArc
 50
180.0
 51
0.0
  0
LINE
  5
161CE
330
1F
100
AcDbEntity
  8
sen1
 62
     0
100
AcDbLine
 10
4362.537309573798
 20
20009.07274056208
 30
0.0
 11
4370.566096663574
 21
20009.07274056208
 31
0.0
  0
DIMENSION
  5
161CF
330
1F
100
AcDbEntity
  8
moji
 62
     0
100
AcDbDimension
  2
*D21
 10
4526.376452940495
 20
19899.07274056208
 30
0.0
 11
4533.376452940491
 21
19954.07274056208
 31
0.0
 70
    32
 71
     5
 42
110.0
  3
ISO-25
100
AcDbAlignedDimension
 13
4475.581236910128
 23
20009.07274056208
 33
0.0
 14
4480.58123691013
 24
19899.07274056208
 34
0.0
 50
90.0
100
AcDbRotatedDimension
1001
ACAD
1000
DSTYLE
1002
{
1070
    41
1040
1.0
1070
    42
1040
5.0
1070
    43
1040
5.0
1070
    44
1040
5.0
1070
    46
1040
1.0
1070
    77
1070
     2
1070
   140
1040
10.0
1070
   147
1040
2.0
1070
   174
1070
     1
1070
   176
1070
     5
1070
   177
1070
     5
1070
   271
1070
     4
1070
   272
1070
     4
1070
   276
1070
     2
1070
   341
1005
1877
1070
   342
1005
1877
1002
}
  0
LINE
  5
161D0
330
1F
100
AcDbEntity
  8
sen1
 62
     0
100
AcDbLine
 10
4391.727831517445
 20
20007.07274056208
 30
0.0
 11
4414.76405436258
 21
20007.07274056208
 31
0.0
  0
LWPOLYLINE
  5
161D1
330
1F
100
AcDbEntity
  8
moji
 62
     0
100
AcDbPolyline
 90
        4
 70
     1
 43
0.0
 10
4386.786020879762
 20
19872.0534982834
 10
4386.786020879762
 20
19872.0534982834
 10
4386.786020879762
 20
19872.0534982834
 10
4386.786020879762
 20
19872.0534982834
  0
CIRCLE
  5
161D2
330
1F
100
AcDbEntity
  8
moji
 62
     0
100
AcDbCircle
 10
4386.786020879762
 20
19872.0534982834
 30
0.0
 40
5.0
  0
CIRCLE
  5
161D3
330
1F
100
AcDbEntity
  8
moji
 62
     0
100
AcDbCircle
 10
4386.786020879762
 20
19872.0534982834
 30
0.0
 40
6.5
  0
LINE
  5
161D4
330
1F
100
AcDbEntity
  8
waku
 62
     0
100
AcDbLine
 10
4375.68602087976
 20
19928.57274056208
 30
0.0
 11
4397.886020879764
 21
19928.57274056208
 31
0.0
  0
LINE
  5
161D5
330
1F
100
AcDbEntity
  8
sen1
 62
     0
100
AcDbLine
 10
4424.786020879765
 20
19902.57274056208
 30
0.0
 11
4424.786020879765
 21
19899.07274056208
 31
0.0
  0
ARC
  5
161D6
330
1F
100
AcDbEntity
  8
sen1
 62
     0
100
AcDbCircle
 10
4421.786020879763
 20
19902.57274056208
 30
0.0
 40
3.0
100
AcDbArc
 50
0.0
 51
90.0
  0
LINE
  5
161D7
330
1F
100
AcDbEntity
  8
waku
 62
     0
100
AcDbLine
 10
4375.68602087976
 20
19961.07274056208
 30
0.0
 11
4397.886020879767
 21
19961.07274056208
 31
0.0
  0
LINE
  5
161D8
330
1F
100
AcDbEntity
  8
sen1
 62
     0
100
AcDbLine
 10
4377.18602087976
 20
19963.57274056208
 30
0.0
 11
4396.386020879767
 21
19963.57274056208
 31
0.0
  0
LINE
  5
161D9
330
1F
100
AcDbEntity
  8
sen1
 62
     0
100
AcDbLine
 10
4397.886020879767
 20
19962.07274056208
 30
0.0
 11
4397.886020879764
 21
19915.57274056208
 31
0.0
  0
LINE
  5
161DA
330
1F
100
AcDbEntity
  8
sen1
 62
     0
100
AcDbLine
 10
4375.68602087976
 20
19962.07274056208
 30
0.0
 11
4375.686020879763
 21
19915.57274056208
 31
0.0
  0
ARC
  5
161DB
330
1F
100
AcDbEntity
  8
sen1
 62
     0
100
AcDbCircle
 10
4377.18602087976
 20
19962.07274056208
 30
0.0
 40
1.5
100
AcDbArc
 50
90.0
 51
180.0
  0
ARC
  5
161DC
330
1F
100
AcDbEntity
  8
sen1
 62
     0
100
AcDbCircle
 10
4396.386020879767
 20
19962.07274056208
 30
0.0
 40
1.5
100
AcDbArc
 50
0.0
 51
90.0
  0
LINE
  5
161DD
330
1F
100
AcDbEntity
  8
sen1
 62
     0
100
AcDbLine
 10
4397.886020879764
 20
19928.57274056208
 30
0.0
 11
4411.63602087976
 21
19905.57274056208
 31
0.0
  0
ARC
  5
161DE
330
1F
100
AcDbEntity
  8
sen1
 62
     0
100
AcDbCircle
 10
4407.886020879762
 20
19915.57274056208
 30
0.0
 40
10.0
100
AcDbArc
 50
180.0
 51
270.0
  0
LINE
  5
161DF
330
1F
100
AcDbEntity
  8
sen1
 62
     0
100
AcDbLine
 10
4387.286020879762
 20
19928.57274056208
 30
0.0
 11
4387.286020879765
 21
19905.57274056208
 31
0.0
  0
LINE
  5
161E0
330
1F
100
AcDbEntity
  8
sen1
 62
     0
100
AcDbLine
 10
4386.286020879765
 20
19928.57274056208
 30
0.0
 11
4386.286020879765
 21
19905.57274056208
 31
0.0
  0
LINE
  5
161E1
330
1F
100
AcDbEntity
  8
sen1
 62
     0
100
AcDbLine
 10
4378.786020879761
 20
19971.57274056208
 30
0.0
 11
4394.786020879766
 21
19971.57274056208
 31
0.0
  0
LINE
  5
161E2
330
1F
100
AcDbEntity
  8
sen1
 62
     0
100
AcDbLine
 10
4389.286020879762
 20
19971.57274056208
 30
0.0
 11
4389.286020879762
 21
19963.57274056208
 31
0.0
  0
LINE
  5
161E3
330
1F
100
AcDbEntity
  8
sen1
 62
     0
100
AcDbLine
 10
4384.286020879762
 20
19971.57274056208
 30
0.0
 11
4384.286020879762
 21
19963.57274056208
 31
0.0
  0
LINE
  5
161E4
330
1F
100
AcDbEntity
  8
sen1
 62
     0
100
AcDbLine
 10
4394.786020879762
 20
19990.57274056208
 30
0.0
 11
4394.786020879766
 21
19971.57274056208
 31
0.0
  0
LINE
  5
161E5
330
1F
100
AcDbEntity
  8
sen1
 62
     0
100
AcDbLine
 10
4378.786020879761
 20
19990.57274056208
 30
0.0
 11
4378.786020879766
 21
19971.57274056208
 31
0.0
  0
LINE
  5
161E6
330
1F
100
AcDbEntity
  8
sen1
 62
     0
100
AcDbLine
 10
4414.786020879762
 20
20009.07274056208
 30
0.0
 11
4414.786020879762
 21
19990.57274056208
 31
0.0
  0
LINE
  5
161E7
330
1F
100
AcDbEntity
  8
sen1
 62
     0
100
AcDbLine
 10
4378.786020879761
 20
19973.57274056208
 30
0.0
 11
4394.786020879766
 21
19973.57274056208
 31
0.0
  0
LINE
  5
161E8
330
1F
100
AcDbEntity
  8
sen1
 62
     0
100
AcDbLine
 10
4394.786020879766
 20
19973.57274056208
 30
0.0
 11
4412.786020879762
 21
19990.57274056208
 31
0.0
  0
LINE
  5
161E9
330
1F
100
AcDbEntity
  8
sen1
 62
     0
100
AcDbLine
 10
4387.286020879762
 20
19990.57274056208
 30
0.0
 11
4387.286020879762
 21
19973.57274056208
 31
0.0
  0
LINE
  5
161EA
330
1F
100
AcDbEntity
  8
sen1
 62
     0
100
AcDbLine
 10
4386.286020879762
 20
19990.57274056208
 30
0.0
 11
4386.286020879762
 21
19973.57274056208
 31
0.0
  0
LINE
  5
161EB
330
1F
100
AcDbEntity
  8
sen1
 62
     0
100
AcDbLine
 10
4394.786020879762
 20
19984.57666803154
 30
0.0
 11
4401.134803559158
 21
19990.57274056208
 31
0.0
  0
LINE
  5
161EC
330
1F
100
AcDbEntity
  8
sen1
 62
     0
100
AcDbLine
 10
4396.286020879762
 20
20015.57274056208
 30
0.0
 11
4396.286020879762
 21
20010.07274056208
 31
0.0
  0
LINE
  5
161ED
330
1F
100
AcDbEntity
  8
sen1
 62
     0
100
AcDbLine
 10
4377.286020879761
 20
20015.57274056208
 30
0.0
 11
4377.286020879761
 21
20010.07274056208
 31
0.0
  0
LINE
  5
161EE
330
1F
100
AcDbEntity
  8
sen1
 62
     0
100
AcDbLine
 10
4378.286020879762
 20
20016.57274056208
 30
0.0
 11
4385.269160383981
 21
20016.57274056208
 31
0.0
  0
LINE
  5
161EF
330
1F
100
AcDbEntity
  8
sen1
 62
     0
100
AcDbLine
 10
4381.036020879765
 20
20024.07274056208
 30
0.0
 11
4385.786020879762
 21
20024.07274056208
 31
0.0
  0
LINE
  5
161F0
330
1F
100
AcDbEntity
  8
sen1
 62
     0
100
AcDbLine
 10
4392.536020879762
 20
20024.57274056208
 30
0.0
 11
4392.536020879766
 21
20016.57274056208
 31
0.0
  0
LINE
  5
161F1
330
1F
100
AcDbEntity
  8
sen1
 62
     0
100
AcDbLine
 10
4381.036020879765
 20
20024.57274056208
 30
0.0
 11
4381.036020879765
 21
20016.57274056208
 31
0.0
  0
LINE
  5
161F2
330
1F
100
AcDbEntity
  8
sen1
 62
     0
100
AcDbLine
 10
4385.536020879765
 20
20029.07274056208
 30
0.0
 11
4385.786020879762
 21
20029.07274056208
 31
0.0
  0
LINE
  5
161F3
330
1F
100
AcDbEntity
  8
sen1
 62
     0
100
AcDbLine
 10
4381.086020879761
 20
20015.07274056208
 30
0.0
 11
4381.086020879761
 21
20010.57274056208
 31
0.0
  0
LINE
  5
161F4
330
1F
100
AcDbEntity
  8
sen1
 62
     0
100
AcDbLine
 10
4392.486020879762
 20
20015.07274056208
 30
0.0
 11
4392.486020879762
 21
20010.57274056208
 31
0.0
  0
LINE
  5
161F5
330
1F
100
AcDbEntity
  8
sen1
 62
     0
100
AcDbLine
 10
4381.586020879761
 20
20015.07274056208
 30
0.0
 11
4381.586020879761
 21
20010.57274056208
 31
0.0
  0
LINE
  5
161F6
330
1F
100
AcDbEntity
  8
sen1
 62
     0
100
AcDbLine
 10
4391.986020879766
 20
20015.07274056208
 30
0.0
 11
4391.986020879762
 21
20010.57274056208
 31
0.0
  0
LINE
  5
161F7
330
1F
100
AcDbEntity
  8
sen1
 62
     0
100
AcDbLine
 10
4377.41999547598
 20
20016.07274056208
 30
0.0
 11
4380.086020879761
 21
20016.07274056208
 31
0.0
  0
LINE
  5
161F8
330
1F
100
AcDbEntity
  8
sen1
 62
     0
100
AcDbLine
 10
4377.41999547598
 20
20009.57274056208
 30
0.0
 11
4380.086020879761
 21
20009.57274056208
 31
0.0
  0
ARC
  5
161F9
330
1F
100
AcDbEntity
  8
sen1
 62
     0
100
AcDbCircle
 10
4380.086020879761
 20
20015.07274056208
 30
0.0
 40
1.0
100
AcDbArc
 50
0.0
 51
90.0
  0
ARC
  5
161FA
330
1F
100
AcDbEntity
  8
sen1
 62
     0
100
AcDbCircle
 10
4380.086020879761
 20
20010.57274056208
 30
0.0
 40
1.0
100
AcDbArc
 50
270.0
 51
0.0
  0
ARC
  5
161FB
330
1F
100
AcDbEntity
  8
sen1
 62
     0
100
AcDbCircle
 10
4382.586020879761
 20
20010.57274056208
 30
0.0
 40
1.0
100
AcDbArc
 50
180.0
 51
270.0
  0
ARC
  5
161FC
330
1F
100
AcDbEntity
  8
sen1
 62
     0
100
AcDbCircle
 10
4382.586020879761
 20
20015.07274056208
 30
0.0
 40
1.0
100
AcDbArc
 50
90.0
 51
180.0
  0
ARC
  5
161FD
330
1F
100
AcDbEntity
  8
sen1
 62
     0
100
AcDbCircle
 10
4390.986020879762
 20
20010.57274056208
 30
0.0
 40
1.0
100
AcDbArc
 50
270.0
 51
0.0
  0
ARC
  5
161FE
330
1F
100
AcDbEntity
  8
sen1
 62
     0
100
AcDbCircle
 10
4390.986020879767
 20
20015.07274056208
 30
0.0
 40
1.0
100
AcDbArc
 50
0.0
 51
90.0
  0
ARC
  5
161FF
330
1F
100
AcDbEntity
  8
sen1
 62
     0
100
AcDbCircle
 10
4393.486020879763
 20
20015.07274056208
 30
0.0
 40
1.0
100
AcDbArc
 50
90.0
 51
180.0
  0
ARC
  5
16200
330
1F
100
AcDbEntity
  8
sen1
 62
     0
100
AcDbCircle
 10
4393.486020879763
 20
20010.57274056208
 30
0.0
 40
1.0
100
AcDbArc
 50
180.0
 51
270.0
  0
LINE
  5
16201
330
1F
100
AcDbEntity
  8
sen1
 62
     0
100
AcDbLine
 10
4382.586020879761
 20
20016.07274056208
 30
0.0
 11
4385.069165372591
 21
20016.07274056208
 31
0.0
  0
LINE
  5
16202
330
1F
100
AcDbEntity
  8
sen1
 62
     0
100
AcDbLine
 10
4393.486020879763
 20
20016.07274056208
 30
0.0
 11
4396.152046283548
 21
20016.07274056208
 31
0.0
  0
LINE
  5
16203
330
1F
100
AcDbEntity
  8
sen1
 62
     0
100
AcDbLine
 10
4393.486020879763
 20
20009.57274056208
 30
0.0
 11
4396.152046283548
 21
20009.57274056208
 31
0.0
  0
ARC
  5
16204
330
1F
100
AcDbEntity
  8
sen1
 62
     0
100
AcDbCircle
 10
4378.286020879762
 20
20015.57274056208
 30
0.0
 40
1.0
100
AcDbArc
 50
90.0
 51
180.0
  0
ARC
  5
16205
330
1F
100
AcDbEntity
  8
sen1
 62
     0
100
AcDbCircle
 10
4395.286020879762
 20
20015.57274056208
 30
0.0
 40
1.0
100
AcDbArc
 50
0.0
 51
90.0
  0
ARC
  5
16206
330
1F
100
AcDbEntity
  8
sen1
 62
     0
100
AcDbCircle
 10
4395.286020879762
 20
20010.07274056208
 30
0.0
 40
1.0
100
AcDbArc
 50
270.0
 51
0.0
  0
ARC
  5
16207
330
1F
100
AcDbEntity
  8
sen1
 62
     0
100
AcDbCircle
 10
4378.286020879762
 20
20010.07274056208
 30
0.0
 40
1.0
100
AcDbArc
 50
180.0
 51
270.0
  0
LINE
  5
16208
330
1F
100
AcDbEntity
  8
sen1
 62
     0
100
AcDbLine
 10
4381.036020879765
 20
20022.07274056208
 30
0.0
 11
4385.786020879762
 21
20022.07274056208
 31
0.0
  0
LINE
  5
16209
330
1F
100
AcDbEntity
  8
sen1
 62
     0
100
AcDbLine
 10
4381.036020879765
 20
20020.07274056208
 30
0.0
 11
4385.786020879762
 21
20020.07274056208
 31
0.0
  0
LINE
  5
1620A
330
1F
100
AcDbEntity
  8
sen1
 62
     0
100
AcDbLine
 10
4381.036020879765
 20
20018.07274056208
 30
0.0
 11
4385.786020879762
 21
20018.07274056208
 31
0.0
  0
LINE
  5
1620B
330
1F
100
AcDbEntity
  8
sen1
 62
     0
100
AcDbLine
 10
4392.536020879766
 20
20024.07274056208
 30
0.0
 11
4387.786020879762
 21
20023.24665360556
 31
0.0
  0
LINE
  5
1620C
330
1F
100
AcDbEntity
  8
sen1
 62
     0
100
AcDbLine
 10
4392.536020879762
 20
20022.07274056208
 30
0.0
 11
4387.786020879762
 21
20021.24665360556
 31
0.0
  0
LINE
  5
1620D
330
1F
100
AcDbEntity
  8
sen1
 62
     0
100
AcDbLine
 10
4392.536020879766
 20
20020.07274056208
 30
0.0
 11
4387.786020879762
 21
20019.24665360556
 31
0.0
  0
LINE
  5
1620E
330
1F
100
AcDbEntity
  8
sen1
 62
     0
100
AcDbLine
 10
4392.536020879766
 20
20018.07274056208
 30
0.0
 11
4388.017238573978
 21
20017.28686537847
 31
0.0
  0
ARC
  5
1620F
330
1F
100
AcDbEntity
  8
sen1
 62
     0
100
AcDbCircle
 10
4385.536020879765
 20
20024.57274056208
 30
0.0
 40
4.5
100
AcDbArc
 50
90.0
 51
180.0
  0
ARC
  5
16210
330
1F
100
AcDbEntity
  8
sen1
 62
     0
100
AcDbCircle
 10
4388.036020879762
 20
20024.57274056208
 30
0.0
 40
4.5
100
AcDbArc
 50
0.0
 51
90.0
  0
LINE
  5
16211
330
1F
100
AcDbEntity
  8
sen1
 62
     0
100
AcDbLine
 10
4400.786020879766
 20
20009.07274056208
 30
0.0
 11
4400.786020879766
 21
20008.16544056208
 31
0.0
  0
LINE
  5
16212
330
1F
100
AcDbEntity
  8
sen1
 62
     0
100
AcDbLine
 10
4403.00594509595
 20
20009.07274056208
 30
0.0
 11
4403.00594509595
 21
20008.16544056208
 31
0.0
  0
LINE
  5
16213
330
1F
100
AcDbEntity
  8
sen1
 62
     0
100
AcDbLine
 10
4411.034732185727
 20
20009.07274056208
 30
0.0
 11
4411.034732185727
 21
20008.16544056208
 31
0.0
  0
LINE
  5
16214
330
1F
100
AcDbEntity
  8
sen1
 62
     0
100
AcDbLine
 10
4413.220100852757
 20
20009.07274056208
 30
0.0
 11
4413.220100852757
 21
20008.16544056208
 31
0.0
  0
ARC
  5
16215
330
1F
100
AcDbEntity
  8
sen1
 62
     0
100
AcDbCircle
 10
4414.76405436258
 20
20008.57274056208
 30
0.0
 40
1.5
100
AcDbArc
 50
270.0
 51
328.5503604918077
  0
ARC
  5
16216
330
1F
100
AcDbEntity
  8
sen1
 62
     0
100
AcDbCircle
 10
4401.895982987859
 20
20008.16544056208
 30
0.0
 40
1.109962108092076
100
AcDbArc
 50
180.0
 51
0.0
  0
ARC
  5
16217
330
1F
100
AcDbEntity
  8
sen1
 62
     0
100
AcDbCircle
 10
4412.127416519242
 20
20008.16544056208
 30
0.0
 40
1.092684333513716
100
AcDbArc
 50
180.0
 51
0.0
  0
LINE
  5
16218
330
1F
100
AcDbEntity
  8
sen1
 62
     0
100
AcDbLine
 10
4413.220100852757
 20
20009.07274056208
 30
0.0
 11
4414.786020879762
 21
20009.07274056208
 31
0.0
  0
LINE
  5
16219
330
1F
100
AcDbEntity
  8
sen1
 62
     0
100
AcDbLine
 10
4403.00594509595
 20
20009.07274056208
 30
0.0
 11
4411.034732185727
 21
20009.07274056208
 31
0.0
  0
LINE
  5
1621A
330
1F
100
AcDbEntity
  8
sen1
 62
     0
100
AcDbLine
 10
4385.786020879763
 20
20017.86492403255
 30
0.0
 11
4387.786020879766
 21
20017.86492403255
 31
0.0
  0
LINE
  5
1621B
330
1F
100
AcDbEntity
  8
sen1
 62
     0
100
AcDbLine
 10
4387.786020879762
 20
20064.12943918672
 30
0.0
 11
4387.786020879762
 21
20017.86492403255
 31
0.0
  0
LINE
  5
1621C
330
1F
100
AcDbEntity
  8
sen1
 62
     0
100
AcDbLine
 10
4385.786020879763
 20
20064.12943918672
 30
0.0
 11
4385.786020879763
 21
20017.86492403255
 31
0.0
  0
LINE
  5
1621D
330
1F
100
AcDbEntity
  8
sen1
 62
     0
100
AcDbLine
 10
4387.786020879762
 20
20029.07274056208
 30
0.0
 11
4388.036020879762
 21
20029.07274056208
 31
0.0
  0
LINE
  5
1621E
330
1F
100
AcDbEntity
  8
sen1
 62
     0
100
AcDbLine
 10
4387.786020879762
 20
20024.07274056208
 30
0.0
 11
4392.536020879766
 21
20024.07274056208
 31
0.0
  0
LINE
  5
1621F
330
1F
100
AcDbEntity
  8
sen1
 62
     0
100
AcDbLine
 10
4385.786020879762
 20
20022.8988275186
 30
0.0
 11
4381.036020879761
 21
20022.07274056208
 31
0.0
  0
LINE
  5
16220
330
1F
100
AcDbEntity
  8
sen1
 62
     0
100
AcDbLine
 10
4387.786020879762
 20
20022.07274056208
 30
0.0
 11
4392.536020879766
 21
20022.07274056208
 31
0.0
  0
LINE
  5
16221
330
1F
100
AcDbEntity
  8
sen1
 62
     0
100
AcDbLine
 10
4385.786020879762
 20
20020.8988275186
 30
0.0
 11
4381.036020879765
 21
20020.07274056208
 31
0.0
  0
LINE
  5
16222
330
1F
100
AcDbEntity
  8
sen1
 62
     0
100
AcDbLine
 10
4387.786020879762
 20
20020.07274056208
 30
0.0
 11
4392.536020879766
 21
20020.07274056208
 31
0.0
  0
LINE
  5
16223
330
1F
100
AcDbEntity
  8
sen1
 62
     0
100
AcDbLine
 10
4385.786020879762
 20
20018.8988275186
 30
0.0
 11
4381.036020879765
 21
20018.07274056208
 31
0.0
  0
LINE
  5
16224
330
1F
100
AcDbEntity
  8
sen1
 62
     0
100
AcDbLine
 10
4387.786020879762
 20
20018.07274056208
 30
0.0
 11
4392.536020879766
 21
20018.07274056208
 31
0.0
  0
LINE
  5
16225
330
1F
100
AcDbEntity
  8
sen1
 62
     0
100
AcDbLine
 10
4385.370700802322
 20
20016.82659793992
 30
0.0
 11
4383.911020879765
 21
20016.57274056208
 31
0.0
  0
LINE
  5
16226
330
1F
100
AcDbEntity
  8
sen1
 62
     0
100
AcDbLine
 10
4388.30288137555
 20
20016.57274056208
 30
0.0
 11
4395.286020879762
 21
20016.57274056208
 31
0.0
  0
LINE
  5
16227
330
1F
100
AcDbEntity
  8
sen1
 62
     0
100
AcDbLine
 10
4388.502876386938
 20
20016.07274056208
 30
0.0
 11
4390.986020879767
 21
20016.07274056208
 31
0.0
  0
LINE
  5
16228
330
1F
100
AcDbEntity
  8
sen1
 62
     0
100
AcDbLine
 10
4391.302806546372
 20
20009.07274056208
 30
0.0
 11
4400.786020879766
 21
20009.07274056208
 31
0.0
  0
LINE
  5
16229
330
1F
100
AcDbEntity
  8
sen1
 62
     0
100
AcDbLine
 10
4381.818391693186
 20
20007.86492403255
 30
0.0
 11
4391.753650066343
 21
20007.86492403255
 31
0.0
  0
ARC
  5
1622A
330
1F
100
AcDbEntity
  8
sen1
 62
     0
100
AcDbCircle
 10
4386.786020879763
 20
20007.83333744696
 30
0.0
 40
5.0
100
AcDbArc
 50
183.8889675069294
 51
356.1110324930705
  0
LINE
  5
1622B
330
1F
100
AcDbEntity
  8
sen1
 62
     0
100
AcDbLine
 10
4385.786020879763
 20
20017.86492403255
 30
0.0
 11
4381.901360302754
 21
20008.1530303457
 31
0.0
  0
LINE
  5
1622C
330
1F
100
AcDbEntity
  8
sen1
 62
     0
100
AcDbLine
 10
4387.786020879766
 20
20017.86492403255
 30
0.0
 11
4391.670681456772
 21
20008.1530303457
 31
0.0
  0
LINE
  5
1622D
330
1F
100
AcDbEntity
  8
sen1
 62
     0
100
AcDbLine
 10
4387.786020879762
 20
20162.06386216614
 30
0.0
 11
4387.786020879766
 21
20017.86492403255
 31
0.0
  0
LINE
  5
1622E
330
1F
100
AcDbEntity
  8
sen1
 62
     0
100
AcDbLine
 10
4385.786020879762
 20
20162.06386216614
 30
0.0
 11
4385.786020879762
 21
20017.86492403254
 31
0.0
  0
ARC
  5
1622F
330
1F
100
AcDbEntity
  8
sen1
 62
     0
100
AcDbCircle
 10
4390.27796162895
 20
20007.59595631004
 30
0.0
 40
1.5
100
AcDbArc
 50
356.1110324930705
 51
21.80091668057611
  0
ARC
  5
16230
330
1F
100
AcDbEntity
  8
sen1
 62
     0
100
AcDbCircle
 10
4383.294080130576
 20
20007.59595631004
 30
0.0
 40
1.5
100
AcDbArc
 50
158.1990833194238
 51
183.8889675069294
  0
ARC
  5
16231
330
1F
100
AcDbEntity
  8
sen1
 62
     0
100
AcDbCircle
 10
4386.786020879762
 20
20162.06386216614
 30
0.0
 40
1.0
100
AcDbArc
 50
0.0
 51
180.0
  0
DIMENSION
  5
16232
330
1F
100
AcDbEntity
  8
sen1
 62
     0
100
AcDbDimension
  2
*D22
 10
4386.786020879753
 20
20311.21177105497
 30
0.0
 11
4458.642710554835
 21
20322.66261013059
 31
0.0
 70
   163
  1
M-10
 71
     5
 42
5.000000000001818
  3
ISO-25
100
AcDbDiametricDimension
 15
4391.723718672025
 25
20311.9986258778
 35
0.0
 40
0.0
1001
ACAD
1000
DSTYLE
1002
{
1070
    41
1040
1.0
1070
    42
1040
5.0
1070
    43
1040
5.0
1070
    44
1040
5.0
1070
    46
1040
1.0
1070
    77
1070
     2
1070
   140
1040
10.0
1070
   147
1040
2.0
1070
   174
1070
     1
1070
   176
1070
     5
1070
   177
1070
     5
1070
   271
1070
     4
1070
   272
1070
     4
1070
   276
1070
     2
1070
   341
1005
1877
1070
   342
1005
1877
1002
}
  0
LWPOLYLINE
  5
16233
330
1F
100
AcDbEntity
  8
sen1
 62
     0
370
    13
100
AcDbPolyline
 90
       16
 70
     1
 43
0.0
 10
4382.857635053482
 20
20319.69573339501
 10
4378.302058539719
 20
20315.14015688125
 42
0.19891236737964
 10
4378.009165320906
 20
20314.43305010006
 10
4378.009165320906
 20
20307.99049200987
 42
0.19891236737964
 10
4378.302058539719
 20
20307.28338522869
 10
4382.857635053479
 20
20302.72780871492
 42
0.1989123673797335
 10
4383.564741834666
 20
20302.43491549611
 10
4390.007299924861
 20
20302.43491549611
 42
0.1989123673796709
 10
4390.714406706048
 20
20302.72780871492
 10
4395.269983219807
 20
20307.28338522869
 42
0.19891236737964
 10
4395.562876438621
 20
20307.99049200987
 10
4395.562876438621
 20
20314.43305010006
 42
0.1989123673796428
 10
4395.269983219807
 20
20315.14015688125
 10
4390.714406706046
 20
20319.69573339501
 42
0.1989123673796767
 10
4390.007299924859
 20
20319.98862661382
 10
4383.564741834668
 20
20319.98862661382
 42
0.1989123673796976
  0
LWPOLYLINE
  5
16234
330
1F
100
AcDbEntity
  8
sen1
 62
     0
370
    13
100
AcDbPolyline
 90
       16
 70
     1
 43
0.0
 10
4382.918295225256
 20
20319.0492867856
 10
4378.948505149128
 20
20315.07949670947
 42
0.198912367379629
 10
4378.509165320906
 20
20314.01883653769
 10
4378.509165320906
 20
20308.40470557224
 42
0.198912367379629
 10
4378.948505149128
 20
20307.34404540046
 10
4382.918295225258
 20
20303.37425532433
 42
0.1989123673796984
 10
4383.978955397039
 20
20302.93491549611
 10
4389.593086362488
 20
20302.93491549611
 42
0.1989123673797513
 10
4390.653746534268
 20
20303.37425532433
 10
4394.6235366104
 20
20307.34404540046
 42
0.1989123673796176
 10
4395.062876438621
 20
20308.40470557224
 10
4395.062876438621
 20
20314.01883653769
 42
0.1989123673797149
 10
4394.6235366104
 20
20315.07949670947
 10
4390.653746534264
 20
20319.04928678561
 42
0.1989123673796878
 10
4389.593086362486
 20
20319.48862661382
 10
4383.978955397037
 20
20319.48862661382
 42
0.1989123673797501
  0
LINE
  5
16235
330
1F
100
AcDbEntity
  8
sen1
 62
     0
370
    13
100
AcDbLine
 10
4387.286020879764
 20
20337.20696291807
 30
0.0
 11
4387.286020879764
 21
20319.98862661382
 31
0.0
  0
LINE
  5
16236
330
1F
100
AcDbEntity
  8
sen1
 62
     0
370
    13
100
AcDbLine
 10
4386.286020879764
 20
20337.20696291807
 30
0.0
 11
4386.286020879764
 21
20319.98862661382
 31
0.0
  0
LINE
  5
16237
330
1F
100
AcDbEntity
  8
sen1
 62
     0
370
    13
100
AcDbLine
 10
4395.562876438621
 20
20310.71177105497
 30
0.0
 11
4412.786020879763
 21
20310.71177105497
 31
0.0
  0
LINE
  5
16238
330
1F
100
AcDbEntity
  8
sen1
 62
     0
370
    13
100
AcDbLine
 10
4387.286020879764
 20
20302.43491549611
 30
0.0
 11
4387.286020879764
 21
20285.21657919186
 31
0.0
  0
LINE
  5
16239
330
1F
100
AcDbEntity
  8
sen1
 62
     0
370
    13
100
AcDbLine
 10
4386.286020879764
 20
20302.43491549611
 30
0.0
 11
4386.286020879764
 21
20285.21657919186
 31
0.0
  0
LINE
  5
1623A
330
1F
100
AcDbEntity
  8
sen1
 62
     0
370
    13
100
AcDbLine
 10
4395.562876438621
 20
20311.71177105497
 30
0.0
 11
4412.786020879763
 21
20311.71177105497
 31
0.0
  0
LINE
  5
1623B
330
1F
100
AcDbEntity
  8
sen1
 62
     0
370
    13
100
AcDbLine
 10
4386.286020879764
 20
20337.20696291807
 30
0.0
 11
4386.286020879764
 21
20319.98862661382
 31
0.0
  0
CIRCLE
  5
1623C
330
1F
100
AcDbEntity
  8
sen1
 62
     0
370
    13
100
AcDbCircle
 10
4386.786020879763
 20
20311.21177105497
 30
0.0
 40
5.0
  0
CIRCLE
  5
1623D
330
1F
100
AcDbEntity
  8
sen1
 62
     0
370
    13
100
AcDbCircle
 10
4386.786020879763
 20
20311.21177105497
 30
0.0
 40
5.75
  0
HATCH
  5
1623E
330
1F
100
AcDbEntity
  8
moji
100
AcDbHatch
 10
0.0
 20
0.0
 30
0.0
210
0.0
220
0.0
230
1.0
  2
ANSI31
 70
     0
 71
     0
 91
        1
 92
        7
 72
     0
 73
     1
 93
        4
 10
5606.786020879762
 20
19899.07274056208
 10
5260.12022008499
 20
19899.07274056208
 10
5260.12022008499
 20
19879.07274056208
 10
5606.786020879763
 20
19879.07274056208
 97
        0
 75
     0
 76
     1
 52
0.0
 41
5.0
 77
     0
 78
     1
 53
45.0
 43
628.8658752937863
 44
1724.719124722331
 45
-11.22532015133643
 46
11.22532015133644
 79
     0
 47
0.6912109692663742
 98
        1
 10
5446.102745188481
 20
19886.45692982452
  0
LINE
  5
1623F
330
1F
100
AcDbEntity
  8
moji
100
AcDbLine
 10
5260.12022008499
 20
19999.07274056208
 30
0.0
 11
5606.786020879763
 21
19999.07274056208
 31
0.0
  0
LINE
  5
16240
330
1F
100
AcDbEntity
  8
moji
100
AcDbLine
 10
5260.12022008499
 20
19899.07274056208
 30
0.0
 11
5606.786020879763
 21
19899.07274056208
 31
0.0
  0
MTEXT
  5
16241
330
1F
100
AcDbEntity
  8
sen1
100
AcDbMText
 10
5354.10350818592
 20
19960.1185952872
 30
0.0
 40
10.0
 41
277.2144
 71
     1
 72
     5
  1
対象物より100ｍｍ程度
 73
     1
 44
1.0
  0
LINE
  5
16242
330
1F
100
AcDbEntity
  8
sen1
 62
     0
100
AcDbLine
 10
5271.911632868502
 20
20013.6062394219
 30
0.0
 11
5270.793447088745
 21
20011.94802937431
 31
0.0
  0
LINE
  5
16243
330
1F
100
AcDbEntity
  8
sen1
 62
     0
100
AcDbLine
 10
5286.584579784986
 20
20008.5362661689
 30
0.0
 11
5280.993650886188
 21
20000.24521593092
 31
0.0
  0
ARC
  5
16244
330
1F
100
AcDbEntity
  8
sen1
 62
     0
100
AcDbCircle
 10
5283.789115335587
 20
20004.39074104991
 30
0.0
 40
5.0
100
AcDbArc
 50
236.0069117778806
 51
56.00691177785901
  0
LINE
  5
16245
330
1F
100
AcDbEntity
  8
sen1
 62
     0
100
AcDbLine
 10
5270.793447088745
 20
20011.94802937431
 30
0.0
 11
5280.993650886188
 21
20000.24521593092
 31
0.0
  0
LINE
  5
16246
330
1F
100
AcDbEntity
  8
sen1
 62
     0
100
AcDbLine
 10
5271.911632868502
 20
20013.6062394219
 30
0.0
 11
5286.584579784984
 21
20008.53626616889
 31
0.0
  0
LINE
  5
16247
330
1F
100
AcDbEntity
  8
sen1
100
AcDbLine
 10
5387.269534037359
 20
20014.11769124255
 30
0.0
 11
5385.888809926989
 21
20012.66899892085
 31
0.0
  0
LINE
  5
16248
330
1F
100
AcDbEntity
  8
sen1
 62
     0
100
AcDbLine
 10
5400.381440394322
 20
20006.8875567205
 30
0.0
 11
5394.316333797306
 21
20000.23815960746
 31
0.0
  0
ARC
  5
16249
330
1F
100
AcDbEntity
  8
sen1
 62
     0
100
AcDbCircle
 10
5397.348887095819
 20
20003.56285816398
 30
0.0
 40
4.5
100
AcDbArc
 50
227.6311561178183
 51
47.63115611754315
  0
LINE
  5
1624A
330
1F
100
AcDbEntity
  8
sen1
 62
     0
100
AcDbLine
 10
5387.269534037356
 20
20014.11769124256
 30
0.0
 11
5400.381440394321
 21
20006.88755672049
 31
0.0
  0
LINE
  5
1624B
330
1F
100
AcDbEntity
  8
sen1
 62
     0
100
AcDbLine
 10
5385.888809926989
 20
20012.66899892085
 30
0.0
 11
5394.316333797306
 21
20000.23815960746
 31
0.0
  0
LINE
  5
1624C
330
1F
100
AcDbEntity
  8
sen1
 62
     0
100
AcDbLine
 10
5588.586813018443
 20
20009.31762729344
 30
0.0
 11
5600.14065798445
 21
19999.6737441139
 31
0.0
  0
LINE
  5
1624D
330
1F
100
AcDbEntity
  8
sen1
 62
     0
100
AcDbLine
 10
5589.414106027692
 20
20011.14676638837
 30
0.0
 11
5604.121256595618
 21
20007.74559859084
 31
0.0
  0
LINE
  5
1624E
330
1F
100
AcDbEntity
  8
sen1
100
AcDbLine
 10
5588.586813018443
 20
20009.31762729344
 30
0.0
 11
5589.414106027692
 21
20011.14676638837
 31
0.0
  0
DIMENSION
  5
1624F
330
1F
100
AcDbEntity
  8
moji
100
AcDbDimension
  2
*D23
 10
5645.815197370016
 20
19899.07274056208
 30
0.0
 11
5653.415197370012
 21
19949.07274056208
 31
0.0
 70
    32
 71
     5
 42
100.0
  3
ISO-25
100
AcDbAlignedDimension
 13
5606.786020879763
 23
19999.07274056208
 33
0.0
 14
5606.786020879763
 24
19899.07274056208
 34
0.0
 50
90.0
100
AcDbRotatedDimension
1001
ACAD
1000
DSTYLE
1002
{
1070
    41
1040
1.0
1070
    42
1040
5.0
1070
    43
1040
5.0
1070
    44
1040
5.0
1070
    46
1040
1.0
1070
    77
1070
     2
1070
   140
1040
15.0
1070
   147
1040
0.1
1070
   174
1070
     1
1070
   176
1070
     5
1070
   177
1070
     5
1070
   271
1070
     4
1070
   272
1070
     4
1070
   276
1070
     2
1070
   341
1005
1877
1070
   342
1005
1877
1002
}
  0
LINE
  5
16250
330
1F
100
AcDbEntity
  8
sen1
 62
     0
100
AcDbLine
 10
5604.12125659562
 20
20007.74559859084
 30
0.0
 11
5600.14065798445
 21
19999.6737441139
 31
0.0
  0
ARC
  5
16251
330
1F
100
AcDbEntity
  8
sen1
 62
     0
100
AcDbCircle
 10
5602.13095729003
 20
20003.70967135237
 30
0.0
 40
4.5
100
AcDbArc
 50
243.7499971664855
 51
63.74999716643877
  0
VIEWPORT
  5
F43
330
F3B
100
AcDbEntity
 67
     1
  8
0
370
     9
100
AcDbViewport
 10
214.8305695469774
 20
164.1519938572525
 30
0.0
 40
541.1767662952676
 41
361.5330264462162
 68
     1
 69
     1
 12
214.8305695469774
 22
164.1519938572525
 13
0.0
 23
0.0
 14
10.0
 24
10.0
 15
10.0
 25
10.0
 16
0.0
 26
0.0
 36
1.0
 17
0.0
 27
0.0
 37
0.0
 42
50.0
 43
0.0
 44
0.0
 45
361.5330264462162
 50
0.0
 51
0.0
 72
   100
 90
    32800
  1

281
     0
 71
     1
 74
     0
110
0.0
120
0.0
130
0.0
111
1.0
121
0.0
131
0.0
112
0.0
122
1.0
132
0.0
 79
     0
146
0.0
  0
VIEWPORT
  5
F45
330
F3B
100
AcDbEntity
 67
     1
  8
sen1
370
     5
100
AcDbViewport
 10
210.9407682378411
 20
140.1289672467944
 30
0.0
 40
394.0359966998184
 41
278.8803617689775
 68
     2
 69
     2
 12
4451.040821994223
 22
18309.93841557638
 13
0.0
 23
0.0
 14
10.0
 24
10.0
 15
10.0
 25
10.0
 16
0.0
 26
0.0
 36
1.0
 17
0.0
 27
0.0
 37
0.0
 42
50.0
 43
0.0
 44
0.0
 45
1115.521516223219
 50
0.0
 51
0.0
 72
   100
 90
    32864
  1

281
     0
 71
     1
 74
     0
110
0.0
120
0.0
130
0.0
111
1.0
121
0.0
131
0.0
112
0.0
122
1.0
132
0.0
 79
     0
146
0.0
  0
LINE
  5
E6DC
330
F3B
100
AcDbEntity
 67
     1
  8
sen1
370
     5
100
AcDbLine
 10
348.8846491503418
 20
10.61561031538236
 30
0.0
 11
348.8846491503418
 21
0.6168373408423804
 31
0.0
  0
MTEXT
  5
E6E1
330
F3B
100
AcDbEntity
 67
     1
  8
moji
370
     5
100
AcDbMText
 10
73.88464915034183
 20
8.115610315382367
 30
0.0
 40
2.5
 41
50.0
 71
     5
 72
     5
  1
{\C7;名　　　　　称}
 73
     1
 44
1.0
  0
MTEXT
  5
E6E2
330
F3B
100
AcDbEntity
 67
     1
  8
moji
 62
     2
100
AcDbMText
 10
123.8846491503418
 20
8.115610315382367
 30
0.0
 40
2.5
 41
50.0
 71
     5
 72
     5
  1

 73
     1
 44
1.0
  0
MTEXT
  5
E6E3
330
F3B
100
AcDbEntity
 67
     1
  8
moji
370
     5
100
AcDbMText
 10
123.8846491503418
 20
8.115610315382367
 30
0.0
 40
2.5
 41
50.0
 71
     5
 72
     5
  1
{\C7;材　　　　　質}
 73
     1
 44
1.0
  0
MTEXT
  5
E6EB
330
F3B
100
AcDbEntity
 67
     1
  8
moji
370
     5
100
AcDbMText
 10
378.4216991503418
 20
3.115610315382367
 30
0.0
 40
2.5
 41
59.0741
 71
     5
 72
     5
  1
{\C7;バードマスター株式会社}
 73
     1
 44
1.0
  0
LINE
  5
E75B
330
F3B
100
AcDbEntity
 67
     1
  8
0
370
     5
100
AcDbLine
 10
366.0288692525731
 20
6.23044490122308
 30
0.0
 11
366.6740256269077
 21
6.23044490122308
 31
0.0
  0
LINE
  5
E75C
330
F3B
100
AcDbEntity
 67
     1
  8
0
370
     5
100
AcDbLine
 10
364.632701841155
 20
9.723051167064937
 30
0.0
 11
364.1385777745824
 21
7.79294490122308
 31
0.0
  0
LINE
  5
E75D
330
F3B
100
AcDbEntity
 67
     1
  8
0
370
     5
100
AcDbLine
 10
363.3976748506772
 20
7.29294490122308
 30
0.0
 11
364.0105734062952
 21
7.29294490122308
 31
0.0
  0
LINE
  5
E75E
330
F3B
100
AcDbEntity
 67
     1
  8
0
370
     5
100
AcDbLine
 10
363.7514839499816
 20
7.792944901223073
 30
0.0
 11
364.1385777745824
 21
7.792944901223073
 31
0.0
  0
LINE
  5
E75F
330
F3B
100
AcDbEntity
 67
     1
  8
0
370
     5
100
AcDbLine
 10
363.3976748506772
 20
7.29294490122308
 30
0.0
 11
363.7514839499816
 21
7.79294490122308
 31
0.0
  0
SPLINE
  5
E760
330
F3B
100
AcDbEntity
 67
     1
  8
0
370
     5
100
AcDbSpline
210
0.0
220
0.0
230
1.0
 70
     8
 71
     3
 72
    11
 73
     7
 74
     5
 42
0.0000000001
 43
0.0000000001
 44
0.0000000001
 40
0.0
 40
0.0
 40
0.0
 40
0.0
 40
0.3683125951836156
 40
0.576652249013034
 40
0.9309622228054632
 40
1.268281931826512
 40
1.268281931826512
 40
1.268281931826512
 40
1.268281931826512
 10
364.6557297806299
 20
7.29294490122308
 30
0.0
 10
364.7787721083382
 20
7.301957159211685
 30
0.0
 10
364.9714145428479
 20
7.316067289860962
 30
0.0
 10
365.267205837697
 20
7.045258778995177
 30
0.0
 10
364.8627053709261
 20
6.834325037998455
 30
0.0
 10
364.648296740458
 20
6.848521192269043
 30
0.0
 10
364.5437259583786
 20
6.85544490122308
 30
0.0
 11
364.6557297806299
 21
7.29294490122308
 31
0.0
 11
365.0210119407058
 21
7.245795019980931
 31
0.0
 11
365.1616428574127
 21
7.092079839780836
 31
0.0
 11
364.880381023999
 21
6.876609798722839
 31
0.0
 11
364.5437259583786
 21
6.85544490122308
 31
0.0
  0
SPLINE
  5
E761
330
F3B
100
AcDbEntity
 67
     1
  8
0
370
     5
100
AcDbSpline
210
0.0
220
0.0
230
1.0
 70
     8
 71
     3
 72
    11
 73
     7
 74
     0
 42
0.0000000001
 43
0.0000000001
 40
11.28374735643573
 40
11.28374735643573
 40
11.28374735643573
 40
11.28374735643573
 40
19.24875081026834
 40
26.28230567960155
 40
32.44434280281309
 40
62.76110915332036
 40
62.76110915332036
 40
62.76110915332036
 40
62.76110915332036
 10
365.48070884998
 20
7.640548119205575
 30
0.0
 10
365.6484360790805
 20
7.580689147545932
 30
0.0
 10
365.9521230340601
 20
7.413397062681283
 30
0.0
 10
365.9270979580696
 20
6.884864596699429
 30
0.0
 10
365.1889754468571
 20
6.287511304319892
 30
0.0
 10
364.3968679799504
 20
6.256345852643995
 30
0.0
 10
363.7385641236849
 20
6.23044490122308
 30
0.0
  0
LINE
  5
E762
330
F3B
100
AcDbEntity
 67
     1
  8
0
370
     5
100
AcDbLine
 10
364.6557297806299
 20
7.29294490122308
 30
0.0
 11
364.5437259583786
 21
6.85544490122308
 31
0.0
  0
LINE
  5
E763
330
F3B
100
AcDbEntity
 67
     1
  8
0
370
     5
100
AcDbLine
 10
365.1178527551306
 20
9.09805116706493
 30
0.0
 11
364.7837341489171
 21
7.79294490122308
 31
0.0
  0
LINE
  5
E764
330
F3B
100
AcDbEntity
 67
     1
  8
0
370
     5
100
AcDbLine
 10
366.9230069700432
 20
9.72305116706493
 30
0.0
 11
367.5681633443779
 21
9.72305116706493
 31
0.0
  0
LINE
  5
E765
330
F3B
100
AcDbEntity
 67
     1
  8
0
370
     5
100
AcDbLine
 10
364.0105734062952
 20
7.29294490122308
 30
0.0
 11
363.7385641236849
 21
6.23044490122308
 31
0.0
  0
LINE
  5
E766
330
F3B
100
AcDbEntity
 67
     1
  8
0
370
     5
100
AcDbLine
 10
366.9230069700432
 20
9.72305116706493
 30
0.0
 11
366.0288692525731
 21
6.23044490122308
 31
0.0
  0
LINE
  5
E767
330
F3B
100
AcDbEntity
 67
     1
  8
0
370
     5
100
AcDbLine
 10
367.5681633443779
 20
9.72305116706493
 30
0.0
 11
366.6740256269077
 21
6.23044490122308
 31
0.0
  0
LINE
  5
E768
330
F3B
100
AcDbEntity
 67
     1
  8
0
370
     5
100
AcDbLine
 10
367.8907415315452
 20
9.72305116706493
 30
0.0
 11
366.9966038140751
 21
6.23044490122308
 31
0.0
  0
LINE
  5
E769
330
F3B
100
AcDbEntity
 67
     1
  8
0
370
     5
100
AcDbLine
 10
368.3758924455209
 20
9.09805116706493
 30
0.0
 11
368.0417738393074
 21
7.792944901223073
 31
0.0
  0
SPLINE
  5
E76A
330
F3B
100
AcDbEntity
 67
     1
  8
0
370
     5
100
AcDbSpline
210
0.0
220
0.0
230
1.0
 70
     8
 71
     3
 72
    11
 73
     7
 74
     0
 42
0.0000000001
 43
0.0000000001
 40
0.0
 40
0.0
 40
0.0
 40
0.0
 40
9.99542598367776
 40
30.46384601694259
 40
43.85507980794651
 40
54.52778084958222
 40
54.52778084958222
 40
54.52778084958222
 40
54.52778084958222
 10
367.8907415315452
 20
9.72305116706493
 30
0.0
 10
368.1196303676486
 20
9.720624721775834
 30
0.0
 10
369.4275159443867
 20
9.557106559633204
 30
0.0
 10
369.6197318833977
 20
8.500692569409949
 30
0.0
 10
369.2816160693361
 20
7.987619386023887
 30
0.0
 10
368.9474024378759
 20
7.728930825314265
 30
0.0
 10
368.7387485403712
 20
7.64054811920819
 30
0.0
  0
SPLINE
  5
E76B
330
F3B
100
AcDbEntity
 67
     1
  8
0
370
     5
100
AcDbSpline
210
0.0
220
0.0
230
1.0
 70
     8
 71
     3
 72
    11
 73
     7
 74
     5
 42
0.0000000001
 43
0.0000000001
 44
0.0000000001
 40
0.0
 40
0.0
 40
0.0
 40
0.0
 40
0.4161877899730531
 40
0.8130865206951352
 40
1.39074731960791
 40
1.828733096006292
 40
1.828733096006292
 40
1.828733096006292
 40
1.828733096006292
 10
368.3758924455209
 20
9.09805116706493
 30
0.0
 10
368.5055035563367
 20
9.031463090060375
 30
0.0
 10
368.7587186906478
 20
8.901373094256031
 30
0.0
 10
368.8405660881132
 20
8.371017272854359
 30
0.0
 10
368.4676974390117
 20
8.006687586445046
 30
0.0
 10
368.1715797162334
 20
7.85076103073161
 30
0.0
 10
368.0438823913281
 20
7.78351951658152
 30
0.0
 11
368.3758924455209
 21
9.09805116706493
 31
0.0
 11
368.7109199659957
 21
8.851132481973813
 31
0.0
 11
368.7777469854681
 21
8.459900131678956
 31
0.0
 11
368.4217639242973
 21
8.004962708773355
 31
0.0
 11
368.0438823913281
 21
7.78351951658152
 31
0.0
  0
SPLINE
  5
E76C
330
F3B
100
AcDbEntity
 67
     1
  8
0
370
     5
100
AcDbSpline
210
0.0
220
0.0
230
1.0
 70
     8
 71
     3
 72
    11
 73
     7
 74
     0
 42
0.0000000001
 43
0.0000000001
 40
0.0
 40
0.0
 40
0.0
 40
0.0
 40
9.99542598367776
 40
30.46384601694259
 40
43.85507980794651
 40
54.52778084958222
 40
54.52778084958222
 40
54.52778084958222
 40
54.52778084958222
 10
364.632701841155
 20
9.723051167064937
 30
0.0
 10
364.8615906772583
 20
9.720624721775841
 30
0.0
 10
366.1694762539964
 20
9.557106559633211
 30
0.0
 10
366.3616921930074
 20
8.500692569409949
 30
0.0
 10
366.0235763789458
 20
7.987619386023887
 30
0.0
 10
365.6893627474857
 20
7.728930825314265
 30
0.0
 10
365.4807088499809
 20
7.640548119208197
 30
0.0
  0
SPLINE
  5
E76D
330
F3B
100
AcDbEntity
 67
     1
  8
0
370
     5
100
AcDbSpline
210
0.0
220
0.0
230
1.0
 70
     8
 71
     3
 72
    11
 73
     7
 74
     5
 42
0.0000000001
 43
0.0000000001
 44
0.0000000001
 40
0.0
 40
0.0
 40
0.0
 40
0.0
 40
0.4161877899730947
 40
0.8130865206951742
 40
1.390747319607979
 40
1.828733096006262
 40
1.828733096006262
 40
1.828733096006262
 40
1.828733096006262
 10
365.1178527551306
 20
9.09805116706493
 30
0.0
 10
365.2474638659465
 20
9.031463090060384
 30
0.0
 10
365.5006790002577
 20
8.901373094256065
 30
0.0
 10
365.582526397723
 20
8.371017272854333
 30
0.0
 10
365.2096577486215
 20
8.00668758644511
 30
0.0
 10
364.9135400258431
 20
7.850761030731625
 30
0.0
 10
364.7858427009379
 20
7.783519516581527
 30
0.0
 11
365.1178527551306
 21
9.09805116706493
 31
0.0
 11
365.4528802756055
 21
8.85113248197382
 31
0.0
 11
365.5197072950779
 21
8.459900131678956
 31
0.0
 11
365.163724233907
 21
8.004962708773362
 31
0.0
 11
364.7858427009379
 21
7.783519516581527
 31
0.0
  0
SPLINE
  5
E76E
330
F3B
100
AcDbEntity
 67
     1
  8
0
370
     5
100
AcDbSpline
210
0.0
220
0.0
230
1.0
 70
     8
 71
     3
 72
     9
 73
     5
 74
     0
 42
0.0000000001
 43
0.0000000001
 40
0.0
 40
0.0
 40
0.0
 40
0.0
 40
6.006996181324775
 40
11.35988105465453
 40
11.35988105465453
 40
11.35988105465453
 40
11.35988105465453
 10
367.9137694710211
 20
7.292944901225695
 30
0.0
 10
368.0383151847383
 20
7.300354487405897
 30
0.0
 10
368.302967172849
 20
7.266382005271815
 30
0.0
 10
368.4955452494526
 20
7.069899363030586
 30
0.0
 10
368.4695536438533
 20
6.943846652871016
 30
0.0
  0
SPLINE
  5
E76F
330
F3B
100
AcDbEntity
 67
     1
  8
0
370
     5
100
AcDbSpline
210
0.0
220
0.0
230
1.0
 70
     8
 71
     3
 72
     9
 73
     5
 74
     0
 42
0.0000000001
 43
0.0000000001
 40
11.28374735643573
 40
11.28374735643573
 40
11.28374735643573
 40
11.28374735643573
 40
19.24875081026834
 40
24.90900566825834
 40
24.90900566825834
 40
24.90900566825834
 40
24.90900566825834
 10
368.7387485403712
 20
7.64054811920819
 30
0.0
 10
368.9064757694716
 20
7.580689147548547
 30
0.0
 10
369.1671270934217
 20
7.424889339690871
 30
0.0
 10
369.1752356102714
 20
7.210176328066431
 30
0.0
 10
369.1603078509639
 20
7.121957108730683
 30
0.0
  0
LINE
  5
E770
330
F3B
100
AcDbEntity
 67
     1
  8
0
370
     5
100
AcDbLine
 10
370.1487888417167
 20
9.72305116706493
 30
0.0
 11
369.2546511242466
 21
6.23044490122308
 31
0.0
  0
LINE
  5
E771
330
F3B
100
AcDbEntity
 67
     1
  8
0
370
     5
100
AcDbLine
 10
366.9966038140751
 20
6.23044490122308
 30
0.0
 11
367.6417601884098
 21
6.23044490122308
 31
0.0
  0
LINE
  5
E772
330
F3B
100
AcDbEntity
 67
     1
  8
0
370
     5
100
AcDbLine
 10
380.1552456126751
 20
9.677786491132131
 30
0.0
 11
381.0997093994613
 21
9.677786491132131
 31
0.0
  0
LINE
  5
E773
330
F3B
100
AcDbEntity
 67
     1
  8
0
370
     5
100
AcDbLine
 10
367.9137694710208
 20
7.292944901225681
 30
0.0
 11
367.6417601884098
 21
6.23044490122308
 31
0.0
  0
LINE
  5
E774
330
F3B
100
AcDbEntity
 67
     1
  8
0
370
     5
100
AcDbLine
 10
368.4695536438533
 20
6.943846652871016
 30
0.0
 11
368.2869165627445
 21
6.23044490122308
 31
0.0
  0
LINE
  5
E775
330
F3B
100
AcDbEntity
 67
     1
  8
0
370
     5
100
AcDbLine
 10
369.1603078509639
 20
7.121957108730683
 30
0.0
 11
368.9320729370793
 21
6.23044490122308
 31
0.0
  0
LINE
  5
E776
330
F3B
100
AcDbEntity
 67
     1
  8
0
370
     5
100
AcDbLine
 10
370.6259101884962
 20
9.043537829090595
 30
0.0
 11
370.0787579141647
 21
6.929446107110948
 31
0.0
  0
SPLINE
  5
E777
330
F3B
100
AcDbEntity
 67
     1
  8
0
370
     5
100
AcDbSpline
210
0.0
220
0.0
230
1.0
 70
     8
 71
     3
 72
    13
 73
     9
 74
     7
 42
0.0000000001
 43
0.0000000001
 44
0.0000000001
 40
0.0
 40
0.0
 40
0.0
 40
0.0
 40
1.409241115267243
 40
2.40587852200531
 40
3.343504335965448
 40
4.972975380452223
 40
5.878945548100011
 40
6.926912156032187
 40
6.926912156032187
 40
6.926912156032187
 40
6.926912156032187
 10
370.1487888417167
 20
9.72305116706493
 30
0.0
 10
370.6176127212585
 20
9.681776325271691
 30
0.0
 10
371.4179961972821
 20
9.611311268374247
 30
0.0
 10
372.4203732650347
 20
8.845140236938879
 30
0.0
 10
372.2727405014623
 20
7.537337536379723
 30
0.0
 10
371.4309763304535
 20
6.592169099143019
 30
0.0
 10
370.252651509491
 20
6.292199481728303
 30
0.0
 10
369.6030537691098
 20
6.252003469234225
 30
0.0
 10
369.2546511242466
 20
6.23044490122308
 30
0.0
 11
370.1487888417167
 21
9.72305116706493
 31
0.0
 11
371.5281193724005
 21
9.434247067226849
 31
0.0
 11
372.2628385226643
 21
8.760842366660291
 31
0.0
 11
372.2325852317772
 21
7.823704753822717
 31
0.0
 11
371.1650802105441
 21
6.592604061570838
 31
0.0
 11
370.2978199722878
 21
6.330608596328929
 31
0.0
 11
369.2546511242466
 21
6.23044490122308
 31
0.0
  0
SPLINE
  5
E778
330
F3B
100
AcDbEntity
 67
     1
  8
0
370
     5
100
AcDbSpline
210
0.0
220
0.0
230
1.0
 70
     8
 71
     3
 72
    12
 73
     8
 74
     6
 42
0.0000000001
 43
0.0000000001
 44
0.0000000001
 40
0.0
 40
0.0
 40
0.0
 40
0.0
 40
0.5971207833899442
 40
1.137226253200407
 40
2.245043331751638
 40
2.722964805079515
 40
3.617229052456219
 40
3.617229052456219
 40
3.617229052456219
 40
3.617229052456219
 10
370.6259101884962
 20
9.043537829090595
 30
0.0
 10
370.8192611483907
 20
9.005137820008553
 30
0.0
 10
371.1875011992984
 20
8.932004377552718
 30
0.0
 10
371.875757193236
 20
8.450553933268047
 30
0.0
 10
371.4975026613166
 20
7.559495520977272
 30
0.0
 10
370.838224550854
 20
7.076800711781112
 30
0.0
 10
370.3784176771559
 20
6.987587233762162
 30
0.0
 10
370.0787579141647
 20
6.929446107110948
 30
0.0
 11
370.6259101884962
 21
9.043537829090595
 31
0.0
 11
371.2005582904082
 21
8.881264020590521
 31
0.0
 11
371.6159500903438
 21
8.536063251377242
 31
0.0
 11
371.3173907350582
 21
7.469235715689677
 31
0.0
 11
370.9373765046119
 21
7.179411425254535
 31
0.0
 11
370.0787579141647
 21
6.929446107110948
 31
0.0
  0
LINE
  5
E779
330
F3B
100
AcDbEntity
 67
     1
  8
0
370
     5
100
AcDbLine
 10
372.7862733771421
 20
6.185180225290281
 30
0.0
 11
373.4314297514767
 21
6.185180225290281
 31
0.0
  0
LINE
  5
E77A
330
F3B
100
AcDbEntity
 67
     1
  8
0
370
     5
100
AcDbLine
 10
368.2869165627445
 20
6.23044490122308
 30
0.0
 11
368.9320729370793
 21
6.23044490122308
 31
0.0
  0
LINE
  5
E77B
330
F3B
100
AcDbEntity
 67
     1
  8
0
370
     5
100
AcDbLine
 10
373.3533599336384
 20
8.400286491132106
 30
0.0
 11
372.7862733771421
 21
6.185180225290281
 31
0.0
  0
LINE
  5
E77C
330
F3B
100
AcDbEntity
 67
     1
  8
0
370
     5
100
AcDbLine
 10
376.3436065885798
 20
8.740286491132124
 30
0.0
 11
375.6894770616483
 21
6.185180225290281
 31
0.0
  0
SPLINE
  5
E77D
330
F3B
100
AcDbEntity
 67
     1
  8
0
370
     5
100
AcDbSpline
210
0.0
220
0.0
230
1.0
 70
     8
 71
     3
 72
    11
 73
     7
 74
     0
 42
0.0000000001
 43
0.0000000001
 40
0.0
 40
0.0
 40
0.0
 40
0.0
 40
17.59159681167854
 40
25.1194859651702
 40
34.36323600136965
 40
39.83447686908764
 40
39.83447686908764
 40
39.83447686908764
 40
39.83447686908764
 10
373.3533599336384
 20
8.400286491132121
 30
0.0
 10
373.4726796141131
 20
8.7715557160559
 30
0.0
 10
373.6430592033649
 20
9.301700431433935
 30
0.0
 10
374.1296432058581
 20
9.641742392984362
 30
0.0
 10
374.5615263696
 20
9.718463028280908
 30
0.0
 10
374.9775109800015
 20
9.600563384601294
 30
0.0
 10
375.0572230477708
 20
9.366454886910041
 30
0.0
  0
SPLINE
  5
E77E
330
F3B
100
AcDbEntity
 67
     1
  8
0
370
     5
100
AcDbSpline
210
0.0
220
0.0
230
1.0
 70
     8
 71
     3
 72
    11
 73
     7
 74
     0
 42
0.0000000001
 43
0.0000000001
 40
20.63988049728201
 40
20.63988049728201
 40
20.63988049728201
 40
20.63988049728201
 40
21.03808777402665
 40
33.63611647905815
 40
40.96999540071692
 40
56.0776740399479
 40
56.0776740399479
 40
56.0776740399479
 40
56.0776740399479
 10
375.0572230477708
 20
9.366454886910041
 30
0.0
 10
375.0572230477708
 20
9.366454886910041
 30
0.0
 10
375.3868082650874
 20
9.641742392984362
 30
0.0
 10
375.8667042599063
 20
9.718567051714977
 30
0.0
 10
376.1152590099861
 20
9.574063369466188
 30
0.0
 10
376.4316015470023
 20
9.348276382942344
 30
0.0
 10
376.3436065885798
 20
8.740286491132124
 30
0.0
  0
SPLINE
  5
E77F
330
F3B
100
AcDbEntity
 67
     1
  8
0
370
     5
100
AcDbSpline
210
0.0
220
0.0
230
1.0
 70
     8
 71
     3
 72
    13
 73
     9
 74
     7
 42
0.0000000001
 43
0.0000000001
 44
0.0000000001
 40
0.0
 40
0.0
 40
0.0
 40
0.0
 40
0.3923699811324832
 40
0.5210288625635624
 40
0.68994377455003
 40
0.8346153173607216
 40
1.009515806886917
 40
1.12313306167643
 40
1.12313306167643
 40
1.12313306167643
 40
1.12313306167643
 10
374.0273071516268
 20
8.51274688619133
 30
0.0
 10
374.0660255581579
 20
8.637065489695322
 30
0.0
 10
374.1174398056416
 20
8.802148405549951
 30
0.0
 10
374.2379415383912
 20
9.00701518946462
 30
0.0
 10
374.382849266904
 20
9.061604938207841
 30
0.0
 10
374.5688842641695
 20
9.041832227601473
 30
0.0
 10
374.5997949737034
 20
8.867989173627098
 30
0.0
 10
374.5780067023961
 20
8.776366982127983
 30
0.0
 10
374.5694265591594
 20
8.740286491132124
 30
0.0
 11
374.0273071516268
 21
8.51274688619133
 31
0.0
 11
374.1659118801378
 21
8.879820354761726
 31
0.0
 11
374.2394220744458
 21
8.985410880396806
 31
0.0
 11
374.3956312168011
 21
9.049683357679228
 31
0.0
 11
374.5371027971282
 21
9.019423693784979
 31
0.0
 11
374.5885955385077
 21
8.852275020976243
 31
0.0
 11
374.5694265591594
 21
8.740286491132124
 31
0.0
  0
SPLINE
  5
E780
330
F3B
100
AcDbEntity
 67
     1
  8
0
370
     5
100
AcDbSpline
210
0.0
220
0.0
230
1.0
 70
     8
 71
     3
 72
    13
 73
     9
 74
     7
 42
0.0000000001
 43
0.0000000001
 44
0.0000000001
 40
0.0
 40
0.0
 40
0.0
 40
0.0
 40
0.3951540234375072
 40
0.5273403931908028
 40
0.7120308858823945
 40
0.9107073335729921
 40
1.068590355330472
 40
1.223305026988171
 40
1.223305026988171
 40
1.223305026988171
 40
1.223305026988171
 10
375.154013971935
 20
8.503697059187075
 30
0.0
 10
375.1862323173499
 20
8.633663042656898
 30
0.0
 10
375.22922829849
 20
8.807105064651761
 30
0.0
 10
375.3610942794393
 20
9.003231589421062
 30
0.0
 10
375.4948806176141
 20
9.130836701733826
 30
0.0
 10
375.7200042016748
 20
9.070264770970336
 30
0.0
 10
375.738704529456
 20
8.879071064369615
 30
0.0
 10
375.7105722866187
 20
8.780092439862869
 30
0.0
 10
375.6966487331017
 20
8.731104729095108
 30
0.0
 11
375.154013971935
 21
8.503697059187075
 31
0.0
 11
375.2813639663916
 21
8.877767481902822
 31
0.0
 11
375.3554679199621
 21
8.987229075230274
 31
0.0
 11
375.5051700211614
 21
9.095394961660154
 31
0.0
 11
375.6949754496338
 21
9.036690360568115
 31
0.0
 11
375.7287274394523
 21
8.882457252116765
 31
0.0
 11
375.6966487331017
 21
8.731104729095108
 31
0.0
  0
LINE
  5
E781
330
F3B
100
AcDbEntity
 67
     1
  8
0
370
     5
100
AcDbLine
 10
380.7421257519349
 20
9.052786491132124
 30
0.0
 11
381.709860313437
 21
9.052786491132124
 31
0.0
  0
LINE
  5
E782
330
F3B
100
AcDbEntity
 67
     1
  8
0
370
     5
100
AcDbLine
 10
375.6966487331017
 20
8.731104729095108
 30
0.0
 11
375.0443206873136
 21
6.185180225290281
 31
0.0
  0
LINE
  5
E783
330
F3B
100
AcDbEntity
 67
     1
  8
0
370
     5
100
AcDbLine
 10
375.154013971935
 20
8.503697059187075
 30
0.0
 11
374.5604534065625
 21
6.185180225290281
 31
0.0
  0
LINE
  5
E784
330
F3B
100
AcDbEntity
 67
     1
  8
0
370
     5
100
AcDbLine
 10
374.5694265591594
 20
8.74028649113201
 30
0.0
 11
373.9152970322278
 21
6.185180225290281
 31
0.0
  0
LINE
  5
E785
330
F3B
100
AcDbEntity
 67
     1
  8
0
370
     5
100
AcDbLine
 10
374.0273071516268
 20
8.512746886191344
 30
0.0
 11
373.4314297514767
 21
6.185180225290281
 31
0.0
  0
LINE
  5
E786
330
F3B
100
AcDbEntity
 67
     1
  8
0
370
     5
100
AcDbLine
 10
376.5791418053119
 20
8.400286491132106
 30
0.0
 11
376.0120552488156
 21
6.185180225290281
 31
0.0
  0
LINE
  5
E787
330
F3B
100
AcDbEntity
 67
     1
  8
0
370
     5
100
AcDbLine
 10
378.514610928316
 20
8.400286491132106
 30
0.0
 11
377.9475243718197
 21
6.185180225290281
 31
0.0
  0
SPLINE
  5
E788
330
F3B
100
AcDbEntity
 67
     1
  8
0
370
     5
100
AcDbSpline
210
0.0
220
0.0
230
1.0
 70
     8
 71
     3
 72
    11
 73
     7
 74
     0
 42
0.0000000001
 43
0.0000000001
 40
20.63988049728201
 40
20.63988049728201
 40
20.63988049728201
 40
20.63988049728201
 40
21.03808777402665
 40
33.63611647905815
 40
40.96999540071692
 40
56.0776740399479
 40
56.0776740399479
 40
56.0776740399479
 40
56.0776740399479
 10
376.5791418053119
 20
8.400286491132106
 30
0.0
 10
376.5791418053119
 20
8.400286491132106
 30
0.0
 10
376.9061929662857
 20
9.677786491132131
 30
0.0
 10
378.2228939637115
 20
9.82680736314036
 30
0.0
 10
378.7393283133425
 20
9.052786491132124
 30
0.0
 10
378.514610928316
 20
8.400286491132106
 30
0.0
 10
378.514610928316
 20
8.400286491132106
 30
0.0
  0
SPLINE
  5
E789
330
F3B
100
AcDbEntity
 67
     1
  8
0
370
     5
100
AcDbSpline
210
0.0
220
0.0
230
1.0
 70
     8
 71
     3
 72
    13
 73
     9
 74
     7
 42
0.0000000001
 43
0.0000000001
 44
0.0000000001
 40
0.0
 40
0.0
 40
0.0
 40
0.0
 40
0.3672689040343544
 40
0.6585419028324102
 40
0.8997380250611449
 40
1.098974453491906
 40
1.358880540609021
 40
1.707130457323577
 40
1.707130457323577
 40
1.707130457323577
 40
1.707130457323577
 10
377.2242981796466
 20
8.400286491132106
 30
0.0
 10
377.2580191464504
 20
8.517109767946674
 30
0.0
 10
377.3184834803499
 20
8.726583050774312
 30
0.0
 10
377.4605457759093
 20
9.005880334346581
 30
0.0
 10
377.7021535425308
 20
9.109742590095002
 30
0.0
 10
377.9639337798751
 20
9.015711562142154
 30
0.0
 10
377.9297358045106
 20
8.699768140343236
 30
0.0
 10
377.8914043767765
 20
8.509334811677581
 30
0.0
 10
377.8694545539813
 20
8.400286491132106
 30
0.0
 11
377.2242981796466
 21
8.400286491132106
 31
0.0
 11
377.3389954615348
 21
8.749186163528115
 31
0.0
 11
377.4959064727632
 21
8.994581547315348
 31
0.0
 11
377.7217666183483
 21
9.079214661487526
 31
0.0
 11
377.9052780315893
 21
9.001634279791218
 31
0.0
 11
377.9311814558743
 21
8.743022240762023
 31
0.0
 11
377.8694545539813
 21
8.400286491132106
 31
0.0
  0
LINE
  5
E78A
330
F3B
100
AcDbEntity
 67
     1
  8
0
370
     5
100
AcDbLine
 10
377.8694545539812
 20
8.40028649113178
 30
0.0
 11
377.7023816483826
 21
7.747680225290267
 31
0.0
  0
LINE
  5
E78B
330
F3B
100
AcDbEntity
 67
     1
  8
0
370
     5
100
AcDbLine
 10
377.2242981796466
 20
8.400286491132163
 30
0.0
 11
377.0572252740478
 21
7.747680225290267
 31
0.0
  0
LINE
  5
E78C
330
F3B
100
AcDbEntity
 67
     1
  8
0
370
     5
100
AcDbLine
 10
378.270102558987
 20
6.185180225290281
 30
0.0
 11
379.0937671372917
 21
6.185180225290281
 31
0.0
  0
LINE
  5
E78D
330
F3B
100
AcDbEntity
 67
     1
  8
0
370
     5
100
AcDbLine
 10
376.0120552488156
 20
6.185180225290281
 30
0.0
 11
376.6572116231504
 21
6.185180225290281
 31
0.0
  0
LINE
  5
E78E
330
F3B
100
AcDbEntity
 67
     1
  8
0
370
     5
100
AcDbLine
 10
375.0443206873136
 20
6.185180225290281
 30
0.0
 11
375.6894770616483
 21
6.185180225290281
 31
0.0
  0
LINE
  5
E78F
330
F3B
100
AcDbEntity
 67
     1
  8
0
370
     5
100
AcDbLine
 10
373.9152970322278
 20
6.185180225290281
 30
0.0
 11
374.5604534065625
 21
6.185180225290281
 31
0.0
  0
LINE
  5
E790
330
F3B
100
AcDbEntity
 67
     1
  8
0
370
     5
100
AcDbLine
 10
377.0572252740478
 20
7.747680225290267
 30
0.0
 11
377.7023816483826
 21
7.747680225290267
 31
0.0
  0
LINE
  5
E791
330
F3B
100
AcDbEntity
 67
     1
  8
0
370
     5
100
AcDbLine
 10
376.9292209057606
 20
7.247680225290281
 30
0.0
 11
377.5743772800954
 21
7.247680225290274
 31
0.0
  0
LINE
  5
E792
330
F3B
100
AcDbEntity
 67
     1
  8
0
370
     5
100
AcDbLine
 10
382.6660544558929
 20
7.747680225290274
 30
0.0
 11
382.9796101172769
 21
7.747680225290274
 31
0.0
  0
LINE
  5
E793
330
F3B
100
AcDbEntity
 67
     1
  8
0
370
     5
100
AcDbLine
 10
382.2154719004383
 20
7.247680225290281
 30
0.0
 11
382.9899632294477
 21
7.247680225290281
 31
0.0
  0
LINE
  5
E794
330
F3B
100
AcDbEntity
 67
     1
  8
0
370
     5
100
AcDbLine
 10
377.5743772800954
 20
7.247680225290274
 30
0.0
 11
377.302367997485
 21
6.185180225290281
 31
0.0
  0
LINE
  5
E795
330
F3B
100
AcDbEntity
 67
     1
  8
0
370
     5
100
AcDbLine
 10
376.9292209057606
 20
7.247680225290281
 30
0.0
 11
376.6572116231504
 21
6.185180225290281
 31
0.0
  0
SPLINE
  5
E796
330
F3B
100
AcDbEntity
 67
     1
  8
0
370
     5
100
AcDbSpline
210
0.0
220
0.0
230
1.0
 70
     8
 71
     3
 72
    16
 73
    12
 74
     0
 42
0.0000000001
 43
0.0000000001
 40
0.0
 40
0.0
 40
0.0
 40
0.0
 40
14.50316906203068
 40
26.15839375771526
 40
33.51404782586
 40
40.77260337238132
 40
47.87996526066161
 40
53.57380437078887
 40
58.03780981495386
 40
64.26096980462921
 40
75.01831001724628
 40
75.01831001724628
 40
75.01831001724628
 40
75.01831001724628
 10
381.0997093994613
 20
9.677786491132131
 30
0.0
 10
380.8472201981281
 20
9.509849375250624
 30
0.0
 10
380.3918223523336
 20
9.206952457689055
 30
0.0
 10
379.8581936726163
 20
8.769686764694228
 30
0.0
 10
379.5402634349159
 20
8.267220161332623
 30
0.0
 10
379.7161873051868
 20
7.806982992185837
 30
0.0
 10
379.9443097410904
 20
7.465387009122295
 30
0.0
 10
380.0400007359411
 20
7.106601475687924
 30
0.0
 10
379.9607127610617
 20
6.755295116924528
 30
0.0
 10
379.5893627722668
 20
6.470691319931518
 30
0.0
 10
379.2860449644422
 20
6.295501666977543
 30
0.0
 10
379.0937671372916
 20
6.185180225290352
 30
0.0
  0
SPLINE
  5
E797
330
F3B
100
AcDbEntity
 67
     1
  8
0
370
     5
100
AcDbSpline
210
0.0
220
0.0
230
1.0
 70
     8
 71
     3
 72
    16
 73
    12
 74
    10
 42
0.0000000001
 43
0.0000000001
 44
0.0000000001
 40
0.0
 40
0.0
 40
0.0
 40
0.0
 40
0.9289266155885872
 40
1.487558063808961
 40
2.177623278403813
 40
2.424242728515099
 40
2.776820329388792
 40
3.091654488552125
 40
3.541313400596125
 40
4.240009744002859
 40
4.660193140610345
 40
4.660193140610345
 40
4.660193140610345
 40
4.660193140610345
 10
380.1552456126751
 20
9.677786491132131
 30
0.0
 10
379.8967036362905
 20
9.508493202331594
 30
0.0
 10
379.4826814785116
 20
9.237391489152225
 30
0.0
 10
378.9128788226161
 20
8.774176383464036
 30
0.0
 10
378.7741341706292
 20
8.216416353712004
 30
0.0
 10
378.9615064084329
 20
7.82281046484752
 30
0.0
 10
379.1037584388619
 20
7.560908550376579
 30
0.0
 10
379.3692179974427
 20
7.255698311117136
 30
0.0
 10
379.1363513596575
 20
6.736065596926359
 30
0.0
 10
378.7333083488229
 20
6.411051097103089
 30
0.0
 10
378.3965635062155
 20
6.246845785236915
 30
0.0
 10
378.270102558987
 20
6.185180225290281
 30
0.0
 11
380.1552456126751
 21
9.677786491132131
 31
0.0
 11
379.3892842558326
 21
9.152231682408221
 31
0.0
 11
378.989475036914
 21
8.762075709227595
 31
0.0
 11
378.8540430699531
 21
8.085430911184388
 31
0.0
 11
378.9471525523761
 21
7.857063274562818
 31
0.0
 11
379.1249070860723
 21
7.552573060617781
 31
0.0
 11
379.2857325930742
 21
7.281915150935382
 31
0.0
 11
379.1587650572631
 21
6.850554070133405
 31
0.0
 11
378.6425405708762
 21
6.379715605323625
 31
0.0
 11
378.270102558987
 21
6.185180225290281
 31
0.0
  0
LINE
  5
E798
330
F3B
100
AcDbEntity
 67
     1
  8
0
370
     5
100
AcDbLine
 10
381.709860313437
 20
9.052786491132124
 30
0.0
 11
380.9757280563259
 21
6.185180225290281
 31
0.0
  0
LINE
  5
E799
330
F3B
100
AcDbEntity
 67
     1
  8
0
370
     5
100
AcDbLine
 10
382.3550166877716
 20
9.052786491132124
 30
0.0
 11
381.6208844306606
 21
6.185180225290281
 31
0.0
  0
LINE
  5
E79A
330
F3B
100
AcDbEntity
 67
     1
  8
0
370
     5
100
AcDbLine
 10
383.1601785224654
 20
9.677786491132131
 30
0.0
 11
383.0001730621063
 21
9.052786491132124
 31
0.0
  0
LINE
  5
E79B
330
F3B
100
AcDbEntity
 67
     1
  8
0
370
     5
100
AcDbLine
 10
381.2247093994613
 20
9.677786491132131
 30
0.0
 11
380.7421257519349
 21
9.052786491132124
 31
0.0
  0
LINE
  5
E79C
330
F3B
100
AcDbEntity
 67
     1
  8
0
370
     5
100
AcDbLine
 10
382.3550166877716
 20
9.052786491132124
 30
0.0
 11
383.0001730621063
 21
9.052786491132131
 31
0.0
  0
LINE
  5
E79D
330
F3B
100
AcDbEntity
 67
     1
  8
0
370
     5
100
AcDbLine
 10
377.9475243718197
 20
6.185180225290281
 30
0.0
 11
377.302367997485
 21
6.185180225290281
 31
0.0
  0
LINE
  5
E79E
330
F3B
100
AcDbEntity
 67
     1
  8
0
370
     5
100
AcDbLine
 10
381.2247093994613
 20
9.677786491132138
 30
0.0
 11
383.1601785224654
 21
9.677786491132138
 31
0.0
  0
LINE
  5
E79F
330
F3B
100
AcDbEntity
 67
     1
  8
0
370
     5
100
AcDbLine
 10
380.9757280563259
 20
6.185180225290281
 30
0.0
 11
381.6208844306606
 21
6.185180225290281
 31
0.0
  0
LINE
  5
E7A0
330
F3B
100
AcDbEntity
 67
     1
  8
0
370
     5
100
AcDbLine
 10
391.8150938256798
 20
6.185180225290281
 30
0.0
 11
392.5885427958039
 21
6.185180225290281
 31
0.0
  0
LINE
  5
E7A1
330
F3B
100
AcDbEntity
 67
     1
  8
0
370
     5
100
AcDbLine
 10
384.4006552625802
 20
9.677786491132138
 30
0.0
 11
385.4182258326368
 21
9.677786491132138
 31
0.0
  0
LINE
  5
E7A2
330
F3B
100
AcDbEntity
 67
     1
  8
0
370
     5
100
AcDbLine
 10
382.6660544558929
 20
7.747680225290274
 30
0.0
 11
382.2154719004382
 21
7.247680225290281
 31
0.0
  0
LINE
  5
E7A3
330
F3B
100
AcDbEntity
 67
     1
  8
0
370
     5
100
AcDbLine
 10
384.9241017660643
 20
7.747680225290274
 30
0.0
 11
384.4735192106097
 21
7.247680225290281
 31
0.0
  0
SPLINE
  5
E7A4
330
F3B
100
AcDbEntity
 67
     1
  8
0
370
     5
100
AcDbSpline
210
0.0
220
0.0
230
1.0
 70
     8
 71
     3
 72
    10
 73
     6
 74
     0
 42
0.0000000001
 43
0.0000000001
 40
0.0
 40
0.0
 40
0.0
 40
0.0
 40
26.19112590873103
 40
40.98940803847752
 40
41.72531218459136
 40
41.72531218459136
 40
41.72531218459136
 40
41.72531218459136
 10
385.4182258326368
 20
9.677786491132138
 30
0.0
 10
384.9791759768761
 20
9.348320806827125
 30
0.0
 10
384.2920579908175
 20
8.832703287530165
 30
0.0
 10
383.8085995454699
 20
8.080574174508811
 30
0.0
 10
383.7248790272531
 20
7.762804670434476
 30
0.0
 10
383.7211433715966
 20
7.747680225290267
 30
0.0
  0
SPLINE
  5
E7A5
330
F3B
100
AcDbEntity
 67
     1
  8
0
370
     5
100
AcDbSpline
210
0.0
220
0.0
230
1.0
 70
     8
 71
     3
 72
     9
 73
     5
 74
     0
 42
0.0000000001
 43
0.0000000001
 40
0.0
 40
0.0
 40
0.0
 40
0.0
 40
22.69091522551075
 40
39.01131959156788
 40
39.01131959156788
 40
39.01131959156788
 40
39.01131959156788
 10
384.4006552625803
 20
9.677786491132138
 30
0.0
 10
384.0371171391585
 20
9.371950670662116
 30
0.0
 10
383.4121048037998
 20
8.846142927063858
 30
0.0
 10
383.0293955488127
 20
8.085550091144789
 30
0.0
 10
382.9796101172768
 20
7.747680225289677
 30
0.0
  0
SPLINE
  5
E7A6
330
F3B
100
AcDbEntity
 67
     1
  8
0
370
     5
100
AcDbSpline
210
0.0
220
0.0
230
1.0
 70
     8
 71
     3
 72
    10
 73
     6
 74
     0
 42
0.0000000001
 43
0.0000000001
 40
47.00573219802856
 40
47.00573219802856
 40
47.00573219802856
 40
47.00573219802856
 40
47.71308536983972
 40
54.09531033586397
 40
67.52744589159572
 40
67.52744589159572
 40
67.52744589159572
 40
67.52744589159572
 10
382.9899632294477
 20
7.247680225290281
 30
0.0
 10
382.9928481288209
 20
7.233154686009591
 30
0.0
 10
383.0241533386639
 20
7.088053700375205
 30
0.0
 10
383.1849260176127
 20
6.684294835166816
 30
0.0
 10
383.4781111606944
 20
6.386280084466612
 30
0.0
 10
383.6782493002714
 20
6.185180225290281
 30
0.0
  0
SPLINE
  5
E7A7
330
F3B
100
AcDbEntity
 67
     1
  8
0
370
     5
100
AcDbSpline
210
0.0
220
0.0
230
1.0
 70
     8
 71
     3
 72
    10
 73
     6
 74
     0
 42
0.0000000001
 43
0.0000000001
 40
49.72086639217938
 40
49.72086639217938
 40
49.72086639217938
 40
49.72086639217938
 40
49.92468886743607
 40
58.79230099387511
 40
71.56139063351249
 40
71.56139063351249
 40
71.56139063351249
 40
71.56139063351249
 10
383.6994671245768
 20
7.247680225290281
 30
0.0
 10
383.7002903825909
 20
7.243524948037183
 30
0.0
 10
383.7382518656105
 20
7.058867499573693
 30
0.0
 10
383.9726712255448
 20
6.64566621676731
 30
0.0
 10
384.3194396706835
 20
6.356081305100673
 30
0.0
 10
384.5240881151667
 20
6.185180225290281
 30
0.0
  0
LINE
  5
E7A8
330
F3B
100
AcDbEntity
 67
     1
  8
0
370
     5
100
AcDbLine
 10
383.6994671245768
 20
7.247680225290281
 30
0.0
 11
384.4735192106097
 21
7.247680225290281
 31
0.0
  0
LINE
  5
E7A9
330
F3B
100
AcDbEntity
 67
     1
  8
0
370
     5
100
AcDbLine
 10
385.7408040217705
 20
9.677786498812757
 30
0.0
 11
384.8466663043004
 21
6.185180232970907
 31
0.0
  0
LINE
  5
E7AA
330
F3B
100
AcDbEntity
 67
     1
  8
0
370
     5
100
AcDbLine
 10
386.2259549357462
 20
9.05278649881275
 30
0.0
 11
385.8918363295326
 21
7.747680232970893
 31
0.0
  0
SPLINE
  5
E7AB
330
F3B
100
AcDbEntity
 67
     1
  8
0
370
     5
100
AcDbSpline
210
0.0
220
0.0
230
1.0
 70
     8
 71
     3
 72
    11
 73
     7
 74
     0
 42
0.0000000001
 43
0.0000000001
 40
0.0
 40
0.0
 40
0.0
 40
0.0
 40
9.99542598367776
 40
30.46384601694259
 40
43.85507980794651
 40
54.52778084958222
 40
54.52778084958222
 40
54.52778084958222
 40
54.52778084958222
 10
385.7408040217705
 20
9.677786498812757
 30
0.0
 10
385.9696928578738
 20
9.675360053523661
 30
0.0
 10
387.2775784346119
 20
9.511841891381031
 30
0.0
 10
387.469794373623
 20
8.455427901157776
 30
0.0
 10
387.1316785595614
 20
7.942354717771706
 30
0.0
 10
386.7974649281011
 20
7.683666157062084
 30
0.0
 10
386.5888110305965
 20
7.595283450956017
 30
0.0
  0
SPLINE
  5
E7AC
330
F3B
100
AcDbEntity
 67
     1
  8
0
370
     5
100
AcDbSpline
210
0.0
220
0.0
230
1.0
 70
     8
 71
     3
 72
    11
 73
     7
 74
     5
 42
0.0000000001
 43
0.0000000001
 44
0.0000000001
 40
0.0
 40
0.0
 40
0.0
 40
0.0
 40
0.4161877899730531
 40
0.8130865206951256
 40
1.390747319607895
 40
1.828733096006228
 40
1.828733096006228
 40
1.828733096006228
 40
1.828733096006228
 10
386.2259549357462
 20
9.05278649881275
 30
0.0
 10
386.355566046562
 20
8.986198421808195
 30
0.0
 10
386.6087811808732
 20
8.856108426003856
 30
0.0
 10
386.6906285783384
 20
8.32575260460217
 30
0.0
 10
386.3177599292371
 20
7.961422918192893
 30
0.0
 10
386.0216422064586
 20
7.80549636247944
 30
0.0
 10
385.8939448815533
 20
7.738254848329347
 30
0.0
 11
386.2259549357462
 21
9.05278649881275
 31
0.0
 11
386.5609824562211
 21
8.805867813721633
 31
0.0
 11
386.6278094756934
 21
8.414635463426776
 31
0.0
 11
386.2718264145226
 21
7.959698040521182
 31
0.0
 11
385.8939448815533
 21
7.738254848329347
 31
0.0
  0
SPLINE
  5
E7AD
330
F3B
100
AcDbEntity
 67
     1
  8
0
370
     5
100
AcDbSpline
210
0.0
220
0.0
230
1.0
 70
     8
 71
     3
 72
     9
 73
     5
 74
     0
 42
0.0000000001
 43
0.0000000001
 40
0.0
 40
0.0
 40
0.0
 40
0.0
 40
6.006996181324775
 40
11.35988105465453
 40
11.35988105465453
 40
11.35988105465453
 40
11.35988105465453
 10
385.7638319612464
 20
7.247680232973515
 30
0.0
 10
385.8883776749636
 20
7.255089819153724
 30
0.0
 10
386.1530296630743
 20
7.221117337019634
 30
0.0
 10
386.3456077396779
 20
7.024634694778406
 30
0.0
 10
386.3196161340786
 20
6.898581984618843
 30
0.0
  0
SPLINE
  5
E7AE
330
F3B
100
AcDbEntity
 67
     1
  8
0
370
     5
100
AcDbSpline
210
0.0
220
0.0
230
1.0
 70
     8
 71
     3
 72
     9
 73
     5
 74
     0
 42
0.0000000001
 43
0.0000000001
 40
11.28374735643573
 40
11.28374735643573
 40
11.28374735643573
 40
11.28374735643573
 40
19.24875081026834
 40
24.90900566825834
 40
24.90900566825834
 40
24.90900566825834
 40
24.90900566825834
 10
386.5888110305965
 20
7.595283450956017
 30
0.0
 10
386.756538259697
 20
7.535424479296366
 30
0.0
 10
387.0171895836469
 20
7.379624671438691
 30
0.0
 10
387.0252981004966
 20
7.164911659814251
 30
0.0
 10
387.0103703411892
 20
7.07669244047851
 30
0.0
  0
LINE
  5
E7AF
330
F3B
100
AcDbEntity
 67
     1
  8
0
370
     5
100
AcDbLine
 10
384.8466663043004
 20
6.185180232970907
 30
0.0
 11
385.4918226786351
 21
6.185180232970907
 31
0.0
  0
LINE
  5
E7B0
330
F3B
100
AcDbEntity
 67
     1
  8
0
370
     5
100
AcDbLine
 10
385.7638319612461
 20
7.2476802329735
 30
0.0
 11
385.4918226786351
 21
6.185180232970907
 31
0.0
  0
LINE
  5
E7B1
330
F3B
100
AcDbEntity
 67
     1
  8
0
370
     5
100
AcDbLine
 10
386.3196161340786
 20
6.898581984618843
 30
0.0
 11
386.1369790529698
 21
6.185180232970907
 31
0.0
  0
LINE
  5
E7B2
330
F3B
100
AcDbEntity
 67
     1
  8
0
370
     5
100
AcDbLine
 10
387.0103703411892
 20
7.07669244047851
 30
0.0
 11
386.7821354273045
 21
6.185180225290281
 31
0.0
  0
LINE
  5
E7B3
330
F3B
100
AcDbEntity
 67
     1
  8
0
370
     5
100
AcDbLine
 10
386.1369790529698
 20
6.185180232970907
 30
0.0
 11
386.7821354273045
 21
6.185180225290281
 31
0.0
  0
LINE
  5
E7B4
330
F3B
100
AcDbEntity
 67
     1
  8
0
370
     5
100
AcDbLine
 10
387.7498699882938
 20
6.185180225290281
 30
0.0
 11
388.3950263626285
 21
6.185180225290281
 31
0.0
  0
LINE
  5
E7B5
330
F3B
100
AcDbEntity
 67
     1
  8
0
370
     5
100
AcDbLine
 10
388.6440077057639
 20
9.677786491132138
 30
0.0
 11
389.2891640800986
 21
9.677786491132138
 31
0.0
  0
LINE
  5
E7B6
330
F3B
100
AcDbEntity
 67
     1
  8
0
370
     5
100
AcDbLine
 10
388.6440077057639
 20
9.677786491132138
 30
0.0
 11
387.7498699882938
 21
6.185180225290281
 31
0.0
  0
LINE
  5
E7B7
330
F3B
100
AcDbEntity
 67
     1
  8
0
370
     5
100
AcDbLine
 10
389.2891640800986
 20
9.677786491132138
 30
0.0
 11
388.3950263626285
 21
6.185180225290281
 31
0.0
  0
LINE
  5
E7B8
330
F3B
100
AcDbEntity
 67
     1
  8
0
370
     5
100
AcDbLine
 10
388.9891946225779
 20
7.246042742781263
 30
0.0
 11
388.7176045497958
 21
6.185180225290281
 31
0.0
  0
LINE
  5
E7B9
330
F3B
100
AcDbEntity
 67
     1
  8
0
370
     5
100
AcDbLine
 10
389.7086672624808
 20
7.534498109885504
 30
0.0
 11
389.3628298867173
 21
6.185180225290281
 31
0.0
  0
LINE
  5
E7BA
330
F3B
100
AcDbEntity
 67
     1
  8
0
370
     5
100
AcDbLine
 10
390.2044102894062
 20
7.582718798825283
 30
0.0
 11
389.8466282048815
 21
6.185180225290281
 31
0.0
  0
LINE
  5
E7BB
330
F3B
100
AcDbEntity
 67
     1
  8
0
370
     5
100
AcDbLine
 10
390.8098836529808
 20
7.427712327986981
 30
0.0
 11
390.4917845792163
 21
6.185180225290281
 31
0.0
  0
LINE
  5
E7BC
330
F3B
100
AcDbEntity
 67
     1
  8
0
370
     5
100
AcDbLine
 10
383.7211433715966
 20
7.747680225290267
 30
0.0
 11
384.9241017660643
 21
7.747680225290274
 31
0.0
  0
LINE
  5
E7BD
330
F3B
100
AcDbEntity
 67
     1
  8
0
370
     5
100
AcDbLine
 10
392.3260983263972
 20
8.372680225290281
 30
0.0
 11
393.1485619070606
 21
8.372680225290281
 31
0.0
  0
SPLINE
  5
E7BE
330
F3B
100
AcDbEntity
 67
     1
  8
0
370
     5
100
AcDbSpline
210
0.0
220
0.0
230
1.0
 70
     8
 71
     3
 72
    11
 73
     7
 74
     5
 42
0.0000000001
 43
0.0000000001
 44
0.0000000001
 40
0.0
 40
0.0
 40
0.0
 40
0.0
 40
1.025633291463329
 40
1.944944168339162
 40
2.493855558883444
 40
3.157640500018898
 40
3.157640500018898
 40
3.157640500018898
 40
3.157640500018898
 10
388.9891946225779
 20
7.246042742781263
 30
0.0
 10
389.077816683503
 20
7.612741246820027
 30
0.0
 10
389.2458737873599
 20
8.30812440462618
 30
0.0
 10
390.1875200241148
 20
8.43474094934487
 30
0.0
 10
390.9553063870448
 20
8.133635858803774
 30
0.0
 10
390.8613253712483
 20
7.677425136815869
 30
0.0
 10
390.8098836529808
 20
7.427712327987087
 30
0.0
 11
388.9891946225779
 21
7.246042742781263
 31
0.0
 11
389.4125452496648
 21
8.180225752208741
 31
0.0
 11
390.3173260063135
 21
8.343027075116012
 31
0.0
 11
390.8052073284483
 21
8.091480796707216
 31
0.0
 11
390.8098836529808
 21
7.427712327987087
 31
0.0
  0
SPLINE
  5
E7BF
330
F3B
100
AcDbEntity
 67
     1
  8
0
370
     5
100
AcDbSpline
210
0.0
220
0.0
230
1.0
 70
     8
 71
     3
 72
    11
 73
     7
 74
     5
 42
0.0000000001
 43
0.0000000001
 44
0.0000000001
 40
0.0
 40
0.0
 40
0.0
 40
0.0
 40
0.2382164435737567
 40
0.5421434355608735
 40
0.732016912811592
 40
1.018337154454287
 40
1.018337154454287
 40
1.018337154454287
 40
1.018337154454287
 10
389.7086672624808
 20
7.534498109885504
 30
0.0
 10
389.7278583886964
 20
7.611142946000838
 30
0.0
 10
389.7715343958717
 20
7.785574627316329
 30
0.0
 10
389.9817889405037
 20
7.984232995272938
 30
0.0
 10
390.2858723729473
 20
7.873360579809109
 30
0.0
 10
390.2349989010925
 20
7.691853358019772
 30
0.0
 10
390.2044102894062
 20
7.582718798825283
 30
0.0
 11
389.7086672624808
 21
7.534498109885504
 31
0.0
 11
389.7878725787737
 21
7.759161395403779
 31
0.0
 11
390.0337339852006
 21
7.93783368001479
 31
0.0
 11
390.2106796974851
 21
7.868970393225509
 31
0.0
 11
390.2044102894062
 21
7.582718798825283
 31
0.0
  0
SPLINE
  5
E7C0
330
F3B
100
AcDbEntity
 67
     1
  8
0
370
     5
100
AcDbSpline
210
0.0
220
0.0
230
1.0
 70
     8
 71
     3
 72
    13
 73
     9
 74
     7
 42
0.0000000001
 43
0.0000000001
 44
0.0000000001
 40
0.0
 40
0.0
 40
0.0
 40
0.0
 40
1.164343723621714
 40
1.736226098691481
 40
2.164005493749148
 40
2.605032503069412
 40
3.226180425109826
 40
3.367692169857771
 40
3.367692169857771
 40
3.367692169857771
 40
3.367692169857771
 10
393.1485619070606
 20
8.372680225290281
 30
0.0
 10
392.7808458952016
 20
8.226448676668045
 30
0.0
 10
392.232521441053
 20
8.008393624693987
 30
0.0
 10
391.7547957009214
 20
7.442046297094518
 30
0.0
 10
391.6504713353846
 20
6.931323204021696
 30
0.0
 10
391.9637839490754
 20
6.505590533178537
 30
0.0
 10
392.2964385014608
 20
6.262516578206296
 30
0.0
 10
392.5428255923917
 20
6.197284127375611
 30
0.0
 10
392.588542795804
 20
6.185180225290281
 30
0.0
 11
393.1485619070606
 21
8.372680225290281
 31
0.0
 11
392.1196348410274
 21
7.827698207677215
 31
0.0
 11
391.7715167902711
 21
7.373976626029346
 31
0.0
 11
391.7109744526723
 21
6.950503089437063
 31
0.0
 11
391.9380079926254
 21
6.572401787288654
 31
0.0
 11
392.4526174101306
 21
6.224548530195832
 31
0.0
 11
392.588542795804
 21
6.185180225290281
 31
0.0
  0
SPLINE
  5
E7C1
330
F3B
100
AcDbEntity
 67
     1
  8
0
370
     5
100
AcDbSpline
210
0.0
220
0.0
230
1.0
 70
     8
 71
     3
 72
    12
 73
     8
 74
     0
 42
0.0000000001
 43
0.0000000001
 40
1.645102655429758
 40
1.645102655429758
 40
1.645102655429758
 40
1.645102655429758
 40
13.15658532728309
 40
23.22113165979271
 40
31.54398940181197
 40
41.83223506517255
 40
51.3822508792191
 40
51.3822508792191
 40
51.3822508792191
 40
51.3822508792191
 10
392.3260983263972
 20
8.372680225290281
 30
0.0
 10
392.1085026908344
 20
8.269052023095042
 30
0.0
 10
391.7052035565058
 20
8.067608942433402
 30
0.0
 10
391.2406674781611
 20
7.638649196905802
 30
0.0
 10
390.9816034838084
 20
7.061745960847325
 30
0.0
 10
391.2461121847842
 20
6.442907902647341
 30
0.0
 10
391.6301975279293
 20
6.268931422070814
 30
0.0
 10
391.8150938256798
 20
6.185180225290281
 30
0.0
  0
ELLIPSE
  5
E7C2
330
F3B
100
AcDbEntity
 67
     1
  8
0
370
     5
100
AcDbEllipse
 10
393.3428868990501
 20
6.531431427661409
 30
0.0
 11
-0.2474730933309162
 21
-0.2820067641118944
 31
0.0
210
0.0
220
0.0
230
1.0
 40
0.8122638817359604
 41
0.0
 42
6.283185307179586
  0
LINE
  5
E7C3
330
F3B
100
AcDbEntity
 67
     1
  8
0
370
     5
100
AcDbLine
 10
388.7176045497958
 20
6.185180225290288
 30
0.0
 11
389.3628298867173
 21
6.185180225290281
 31
0.0
  0
LINE
  5
E7C4
330
F3B
100
AcDbEntity
 67
     1
  8
0
370
     5
100
AcDbLine
 10
389.8466282048815
 20
6.185180225290281
 30
0.0
 11
390.4917845792163
 21
6.185180225290281
 31
0.0
  0
LINE
  5
E7C5
330
F3B
100
AcDbEntity
 67
     1
  8
0
370
     5
100
AcDbLine
 10
383.6782493002714
 20
6.185180225290281
 30
0.0
 11
384.5240881151667
 21
6.185180225290281
 31
0.0
  0
MTEXT
  5
E7C6
330
F3B
100
AcDbEntity
 67
     1
  8
moji
370
     5
100
AcDbMText
 10
73.88464915034183
 20
3.116223828112373
 30
0.0
 40
2.5
 41
50.0
 71
     5
 72
     5
  1
{\C7;ダディロングレッグス}
 73
     1
 44
1.0
  0
MTEXT
  5
E7C8
330
F3B
100
AcDbEntity
 67
     1
  8
moji
370
     5
100
AcDbMText
 10
98.88464915034184
 20
3.116223828112373
 30
0.0
 40
2.5
 41
112.8133999999999
 71
     4
 72
     5
  1
　基盤：デルリンプレスチック　ロッド：316ステンレススチール(12本）
 73
     1
 44
1.0
  0
MTEXT
  5
E7CF
330
F3B
100
AcDbEntity
 67
     1
  8
moji
370
     5
100
AcDbMText
 10
223.8846491503418
 20
8.115610315382367
 30
0.0
 40
2.5
 41
50.0
 71
     5
 72
     5
  1
{\C7;サ　イ　ズ}
 73
     1
 44
1.0
  0
MTEXT
  5
E7D0
330
F3B
100
AcDbEntity
 67
     1
  8
moji
370
     5
100
AcDbMText
 10
223.8846491503418
 20
3.116530584477377
 30
0.0
 40
2.5
 41
50.0
 71
     5
 72
     5
  1
小：D=1220
 73
     1
 44
1.0
  0
MTEXT
  5
E85E
330
F3B
100
AcDbEntity
 67
     1
  8
moji
370
     5
100
AcDbMText
 10
323.8846491503418
 20
8.11591707174737
 30
0.0
 40
2.5
 41
50.0
 71
     5
 72
     5
  1
尺　　　　度
 73
     1
 44
1.0
  0
MTEXT
  5
E85F
330
F3B
100
AcDbEntity
 67
     1
  8
moji
370
     5
100
AcDbMText
 10
323.8846491503418
 20
3.127718861942816
 30
0.0
 40
2.5
 41
50.0
 71
     5
 72
     5
  1
1/4
 73
     1
 44
1.0
  0
LINE
  5
10A9E
330
F3B
100
AcDbEntity
 67
     1
  8
sen1
370
     5
100
AcDbLine
 10
13.94813084789166
 20
10.61561031538235
 30
0.0
 11
407.9587665877503
 21
10.61561031538235
 31
0.0
  0
LINE
  5
10A9F
330
F3B
100
AcDbEntity
 67
     1
  8
sen1
370
     5
100
AcDbLine
 10
13.94813084789166
 20
5.615610315382355
 30
0.0
 11
348.8846491503418
 21
5.615610315382355
 31
0.0
  0
MTEXT
  5
10AA0
330
F3B
100
AcDbEntity
 67
     1
  8
moji
370
     5
100
AcDbMText
 10
31.43828351699699
 20
7.799191142735026
 30
0.0
 40
2.5
 41
35.0000176446858
 71
     5
 72
     5
  1
図面番号
 73
     1
 44
1.0
  0
LINE
  5
10AA1
330
F3B
100
AcDbEntity
 67
     1
  8
sen1
370
     5
100
AcDbLine
 10
48.88464915034183
 20
10.61561031538235
 30
0.0
 11
48.88464915034183
 21
0.6168373408423804
 31
0.0
  0
LINE
  5
10AA2
330
F3B
100
AcDbEntity
 67
     1
  8
sen1
370
     5
100
AcDbLine
 10
98.88464915034184
 20
10.61561031538235
 30
0.0
 11
98.88464915034184
 21
0.6168373408423804
 31
0.0
  0
LINE
  5
10AA3
330
F3B
100
AcDbEntity
 67
     1
  8
sen1
370
     5
100
AcDbLine
 10
298.8846491503418
 20
10.61561031538235
 30
0.0
 11
298.8846491503418
 21
0.6168373408423804
 31
0.0
  0
MTEXT
  5
138BB
330
F3B
100
AcDbEntity
 67
     1
  8
sen1
  6
HIDDEN
100
AcDbMText
 10
90.38764522057453
 20
4.256460715428261
 30
0.0
 40
1.5
 41
3.1648
 71
     1
 72
     5
  1
R
 73
     1
 44
1.0
  0
CIRCLE
  5
138BC
330
F3B
100
AcDbEntity
 67
     1
  8
moji
100
AcDbCircle
 10
90.82719718523515
 20
3.597470254202107
 30
0.0
 40
1.317981568531308
  0
ENDSEC
  0
SECTION
  2
OBJECTS
  0
DICTIONARY
  5
C
330
0
100
AcDbDictionary
281
     1
  3
ACAD_GROUP
350
D
  3
ACAD_LAYOUT
350
1A
  3
ACAD_MLINESTYLE
350
17
  3
ACAD_PLOTSETTINGS
350
19
  3
ACAD_PLOTSTYLENAME
350
E
  3
AcDbVariableDictionary
350
FA7E
  3
DWGPROPS
350
159E4
  0
DICTIONARY
  5
D
102
{ACAD_REACTORS
330
C
102
}
330
C
100
AcDbDictionary
281
     1
  3
*A1
350
10A31
  3
*A2
350
12A89
  3
*A3
350
131A4
  3
*A4
350
1386E
  3
*A5
350
1386F
  3
*A6
350
15E77
  3
*A7
350
15E79
  3
*A8
350
15E7A
  3
*A9
350
15EC1
  3
*A10
350
15EF4
  3
*A11
350
10A32
  3
*A12
350
10A49
  3
*A13
350
10D1D
  3
*A14
350
12A88
  0
DICTIONARY
  5
1A
102
{ACAD_REACTORS
330
C
102
}
330
C
100
AcDbDictionary
281
     1
  3
DLL (2440)
350
1635E
  3
DLL（1220）
350
F3C
  3
Model
350
22
  0
DICTIONARY
  5
17
102
{ACAD_REACTORS
330
C
102
}
330
C
100
AcDbDictionary
281
     1
  3
Standard
350
18
  0
DICTIONARY
  5
19
102
{ACAD_REACTORS
330
C
102
}
330
C
100
AcDbDictionary
281
     1
  0
ACDBDICTIONARYWDFLT
  5
E
102
{ACAD_REACTORS
330
C
102
}
330
C
100
AcDbDictionary
281
     1
  3
Normal
350
F
100
AcDbDictionaryWithDefault
340
F
  0
DICTIONARY
  5
FA7E
102
{ACAD_REACTORS
330
C
102
}
330
C
100
AcDbDictionary
281
     1
  3
SORTENTS
350
FA7F
  0
XRECORD
  5
159E4
102
{ACAD_REACTORS
330
C
102
}
330
C
100
AcDbXrecord
280
     1
  1
DWGPROPS COOKIE
  2

  3

  4

  6

  7

  8

  9

300
=
301
=
302
=
303
=
304
=
305
=
306
=
307
=
308
=
309
=
 40
1.674596342592592
 41
2452424.6251875
 42
2454403.424525995
  1

 90
        0
  0
GROUP
  5
10A31
102
{ACAD_REACTORS
330
D
102
}
330
D
100
AcDbGroup
300

 70
     1
 71
     1
  0
GROUP
  5
12A89
102
{ACAD_REACTORS
330
D
102
}
330
D
100
AcDbGroup
300

 70
     1
 71
     1
  0
GROUP
  5
131A4
102
{ACAD_REACTORS
330
D
102
}
330
D
100
AcDbGroup
300

 70
     1
 71
     1
  0
GROUP
  5
1386E
102
{ACAD_REACTORS
330
D
102
}
330
D
100
AcDbGroup
300

 70
     1
 71
     1
  0
GROUP
  5
1386F
102
{ACAD_REACTORS
330
D
102
}
330
D
100
AcDbGroup
300

 70
     1
 71
     1
  0
GROUP
  5
15E77
102
{ACAD_REACTORS
330
D
102
}
330
D
100
AcDbGroup
300

 70
     1
 71
     1
  0
GROUP
  5
15E79
102
{ACAD_REACTORS
330
D
102
}
330
D
100
AcDbGroup
300

 70
     1
 71
     1
  0
GROUP
  5
15E7A
102
{ACAD_REACTORS
330
D
102
}
330
D
100
AcDbGroup
300

 70
     1
 71
     1
  0
GROUP
  5
15EC1
102
{ACAD_REACTORS
330
D
102
}
330
D
100
AcDbGroup
300

 70
     1
 71
     1
  0
GROUP
  5
15EF4
102
{ACAD_REACTORS
330
D
102
}
330
D
100
AcDbGroup
300

 70
     1
 71
     1
  0
GROUP
  5
10A32
102
{ACAD_REACTORS
330
D
102
}
330
D
100
AcDbGroup
300

 70
     1
 71
     1
  0
GROUP
  5
10A49
102
{ACAD_REACTORS
330
D
102
}
330
D
100
AcDbGroup
300

 70
     1
 71
     1
  0
GROUP
  5
10D1D
102
{ACAD_REACTORS
330
D
102
}
330
D
100
AcDbGroup
300

 70
     1
 71
     1
  0
GROUP
  5
12A88
102
{ACAD_REACTORS
330
D
102
}
330
D
100
AcDbGroup
300

 70
     1
 71
     1
  0
LAYOUT
  5
1635E
102
{ACAD_REACTORS
330
1A
102
}
330
1A
100
AcDbPlotSettings
  1

  2
自動 RICOH imagio MF1530 RPDL (コピー 1) (BMI-1 上)
  4
A3
  6

 40
5.873749732971191
 41
4.222746849060058
 42
8.2232666015625
 43
5.873748779296875
 44
296.989501953125
 45
419.9889831542968
 46
0.0
 47
0.0
 48
0.0
 49
0.0
140
0.0
141
0.0
142
1.0
143
1.0
 70
   688
 72
     1
 73
     1
 74
     5
  7

 75
    16
147
1.0
148
0.0
149
0.0
100
AcDbLayout
  1
DLL (2440)
 70
     1
 71
     1
 10
-5.873748779296875
 20
-5.873749732971191
 11
414.1152343749999
 21
291.1157522201538
 12
0.0
 22
0.0
 32
0.0
 14
13.92276988793196
 24
0.6168373408423804
 34
-0.00000001
 15
407.9587665877503
 25
279.5691481312832
 35
0.00000001
146
0.0
 13
0.0
 23
0.0
 33
0.0
 16
1.0
 26
0.0
 36
0.0
 17
0.0
 27
1.0
 37
0.0
 76
     0
330
162DB
331
162DC
  0
LAYOUT
  5
F3C
102
{ACAD_REACTORS
330
1A
102
}
330
1A
100
AcDbPlotSettings
  1

  2
自動 RICOH imagio MF1530 RPDL (コピー 1) (BMI-1 上)
  4
A3
  6

 40
5.873749732971191
 41
4.222746849060058
 42
8.2232666015625
 43
5.873748779296875
 44
296.989501953125
 45
419.9889831542968
 46
0.0
 47
0.0
 48
0.0
 49
0.0
140
0.0
141
0.0
142
1.0
143
1.0
 70
   688
 72
     1
 73
     1
 74
     5
  7

 75
    16
147
1.0
148
0.0
149
0.0
100
AcDbLayout
  1
DLL（1220）
 70
     1
 71
     2
 10
-5.873748779296875
 20
-5.873749732971191
 11
414.1152343749999
 21
291.1157522201538
 12
0.0
 22
0.0
 32
0.0
 14
13.92276988793196
 24
0.6168373408423804
 34
-0.00000001
 15
407.9587665877503
 25
279.5691481312832
 35
0.00000001
146
0.0
 13
0.0
 23
0.0
 33
0.0
 16
1.0
 26
0.0
 36
0.0
 17
0.0
 27
1.0
 37
0.0
 76
     0
330
F3B
331
F43
  0
LAYOUT
  5
22
102
{ACAD_REACTORS
330
1A
102
}
330
1A
100
AcDbPlotSettings
  1

  2
EPSON LP-8300
  4
A4
  6

 40
3.174999952316284
 41
3.174999952316284
 42
3.175003051757812
 43
3.17498779296875
 44
210.0
 45
297.0
 46
0.0
 47
0.0
 48
0.0
 49
0.0
140
0.0
141
0.0
142
1.0
143
1.0
 70
 11936
 72
     1
 73
     1
 74
     0
  7

 75
     0
147
1.0
148
3672.318572820544
149
2797.294508853763
100
AcDbLayout
  1
Model
 70
     1
 71
     0
 10
0.0
 20
0.0
 11
12.0
 21
9.0
 12
0.0
 22
0.0
 32
0.0
 14
0.0
 24
0.0
 34
0.0
 15
0.0
 25
0.0
 35
0.0
146
0.0
 13
0.0
 23
0.0
 33
0.0
 16
1.0
 26
0.0
 36
0.0
 17
0.0
 27
1.0
 37
0.0
 76
     0
330
1F
  0
MLINESTYLE
  5
18
102
{ACAD_REACTORS
330
17
102
}
330
17
100
AcDbMlineStyle
  2
STANDARD
 70
     0
  3

 62
   256
 51
90.0
 52
90.0
 71
     2
 49
0.5
 62
   256
  6
BYLAYER
 49
-0.5
 62
   256
  6
BYLAYER
  0
ACDBPLACEHOLDER
  5
F
102
{ACAD_REACTORS
330
E
102
}
330
E
  0
DICTIONARYVAR
  5
FA7F
102
{ACAD_REACTORS
330
FA7E
102
}
330
FA7E
100
DictionaryVariables
280
     0
  1
96
  0
ENDSEC
  0
EOF
